<?xml version="1.0" standalone="no"?>
<!DOCTYPE svg PUBLIC "-//W3C//DTD SVG 1.1//EN" "http://www.w3.org/Graphics/SVG/1.1/DTD/svg11.dtd" >
<svg>
<metadata>
Created by FontForge 20120731 at Sat Jun 29 19:09:57 2019
 By www
Copyright (c) 2009 by Jos Buivenga. All rights reserved.
</metadata>
<defs>
<font id="MuseoSlabW00-700" horiz-adv-x="1196" >
  <font-face 
    font-family="MuseoSlabW00-700"
    font-weight="600"
    font-stretch="normal"
    units-per-em="2048"
    panose-1="2 0 0 0 0 0 0 0 0 0"
    ascent="1638"
    descent="-410"
    x-height="1044"
    cap-height="1454"
    bbox="-285 -479 2322 1870"
    underline-thickness="102"
    underline-position="-154"
    unicode-range="U+0020-FB04"
  />
<missing-glyph horiz-adv-x="1044" 
d="M10 1434h1024v-1434h-1024v1434zM870 1331h-696l348 -522zM932 195v1044l-348 -522zM461 717l-348 522v-1044zM870 102l-348 523l-348 -523h696z" />
    <glyph glyph-name="uniFB00" unicode="ff" horiz-adv-x="1536" 
d="M94 195h152v655h-162v194h162v48q0 84 20.5 145.5t54.5 103.5t77.5 68t89 40.5t89 19t78.5 4.5q23 0 43 -1.5t34 -3.5q17 -2 30 -4v-209q-9 1 -20 3q-10 2 -25 3t-35 1q-22 0 -52.5 -4.5t-58 -21t-46.5 -49t-19 -89.5v-54h475v48q0 84 20.5 145.5t54 103.5t77 68
t88.5 40.5t89 19t79 4.5q23 0 43.5 -1.5t34.5 -3.5q17 -2 30 -4v-209q-9 1 -20 3q-10 2 -25 3t-35 1q-22 0 -52.5 -4.5t-58.5 -21t-47.5 -49t-19.5 -89.5v-54h238v-194h-238v-655h178v-195h-588v195h152v655h-475v-655h176v-195h-588v195z" />
    <glyph glyph-name="uniFB01" unicode="fi" horiz-adv-x="1450" 
d="M94 195h152v655h-162v194h162v48q0 84 20.5 145.5t54.5 103.5t77.5 68t89 40.5t89 19t78.5 4.5q23 0 43 -1.5t34 -3.5q17 -2 30 -4v-209q-9 1 -20 3q-10 2 -25 3t-35 1q-22 0 -52.5 -4.5t-58 -21t-46.5 -49t-19 -89.5v-54h733v-849h152v-195h-562v195h152v655h-475v-655
h176v-195h-588v195zM979 1454h262v-231h-262v231z" />
    <glyph glyph-name="uniFB02" unicode="fl" horiz-adv-x="1423" 
d="M94 195h152v655h-162v194h162v27q0 80 20.5 142.5t57 109.5t86 79t108.5 51.5t124 28.5t132 9q90 0 167.5 -9t136.5 -20q69 -12 126 -28v-1086q0 -35 4.5 -62t16.5 -45t33.5 -27t56.5 -9h17t14 1q7 0 14 1v-209q-13 -2 -28 -3q-13 -2 -30.5 -2.5t-37.5 -0.5
q-62 0 -119.5 13t-102 49.5t-71.5 103t-27 174.5v938q-21 6 -48 10q-23 4 -57 7t-77 3q-54 0 -101 -11t-81.5 -36t-54 -66t-19.5 -100v-33h235v-194h-235v-655h176v-195h-588v195z" />
    <glyph glyph-name="uniFB03" unicode="ffi" horiz-adv-x="2185" 
d="M94 195h152v655h-162v194h162v48q0 84 20.5 145.5t54.5 103.5t77.5 68t89 40.5t89 19t78.5 4.5q23 0 43 -1.5t34 -3.5q17 -2 30 -4v-209q-9 1 -20 3q-10 2 -25 3t-35 1q-22 0 -52.5 -4.5t-58 -21t-46.5 -49t-19 -89.5v-54h475v48q0 84 20.5 145.5t54 103.5t77 68
t88.5 40.5t89 19t79 4.5q23 0 43.5 -1.5t34.5 -3.5q17 -2 30 -4v-209q-9 1 -20 3q-10 2 -25 3t-35 1q-22 0 -52.5 -4.5t-58.5 -21t-47.5 -49t-19.5 -89.5v-54h735v-849h152v-195h-563v195h151v655h-475v-655h178v-195h-588v195h152v655h-475v-655h176v-195h-588v195z
M1712 1454h264v-231h-264v231z" />
    <glyph glyph-name="uniFB04" unicode="ffl" horiz-adv-x="2159" 
d="M94 195h152v655h-162v194h162v48q0 84 20.5 145.5t54 103.5t77 68t89 40.5t89.5 19t79 4.5q23 0 43 -1.5t34 -3.5q17 -2 30 -4v-209q-10 1 -21 3q-10 2 -24.5 3t-32.5 1q-23 0 -53.5 -4.5t-58.5 -21t-47 -49t-19 -89.5v-54h475v27q0 80 20.5 142.5t57 109.5t86 79
t108.5 51.5t124 28.5t132 9q90 0 167.5 -9t136.5 -20q69 -12 126 -28v-1086q0 -35 4.5 -62t16.5 -45t33.5 -27t56.5 -9h16.5t14.5 1q7 0 14 1v-209q-12 -2 -28 -3q-27 -3 -70 -3q-61 0 -118 13t-101.5 49.5t-71.5 103t-27 174.5v938q-22 6 -49 10q-23 4 -57 7t-76 3
q-54 0 -101 -11t-82 -36t-55 -66t-20 -100v-33h238v-194h-238v-655h178v-195h-588v195h152v655h-475v-655h176v-195h-588v195z" />
    <glyph glyph-name="f_j.liga" unicode="fj" horiz-adv-x="1389" 
d="M94 195h152v655h-162v194h162v48q0 84 20.5 145.5t54.5 103.5t77.5 68t89 40.5t89 19t78.5 4.5q23 0 43 -1.5t34 -3.5q17 -2 30 -4v-209q-9 1 -20 3q-10 2 -25 3t-35 1q-22 0 -52.5 -4.5t-58 -21t-46.5 -49t-19 -89.5v-54h727v-1069q0 -88 -22.5 -151.5t-59 -107.5
t-83 -71.5t-95 -42.5t-94.5 -20.5t-82 -5.5t-57 3q-12 1 -21 3v207q5 -1 12 -2q6 -1 14 -1.5t19 -0.5q28 0 64 6.5t68 28t54.5 61t22.5 105.5v864h-467v-655h176v-195h-588v195zM973 1454h260v-231h-260v231z" />
    <glyph glyph-name=".notdef" horiz-adv-x="1044" 
d="M10 1434h1024v-1434h-1024v1434zM870 1331h-696l348 -522zM932 195v1044l-348 -522zM461 717l-348 522v-1044zM870 102l-348 523l-348 -523h696z" />
    <glyph glyph-name="glyph1" horiz-adv-x="0" 
 />
    <glyph glyph-name="glyph1" horiz-adv-x="0" 
 />
    <glyph glyph-name="glyph2" horiz-adv-x="512" 
 />
    <glyph glyph-name="space" unicode=" " horiz-adv-x="512" 
 />
    <glyph glyph-name="exclam" unicode="!" horiz-adv-x="545" 
d="M137 1454h271l-23 -1034h-227zM147 244h252v-244h-252v244z" />
    <glyph glyph-name="quotedbl" unicode="&#x22;" horiz-adv-x="758" 
d="M446 1481h193v-457h-193v457zM119 1481h192v-457h-192v457z" />
    <glyph glyph-name="numbersign" unicode="#" horiz-adv-x="1456" 
d="M322 383h-244l31 186h243l51 287h-241l33 188h241l72 410h207l-72 -410h281l71 410h209l-71 -410h245l-30 -188h-246l-51 -287h243l-30 -186h-246l-66 -383h-209l66 383h-279l-67 -383h-207zM842 569l51 287h-281l-51 -287h281z" />
    <glyph glyph-name="dollar" unicode="$" horiz-adv-x="1139" 
d="M217 391q50 -44 108 -77q50 -29 115 -52.5t138 -23.5q43 0 82.5 12t69.5 34.5t47.5 55t17.5 74.5q0 46 -29.5 79t-78.5 60t-111 50.5t-126.5 50.5t-126.5 60t-111 79t-78.5 108t-29.5 146q0 74 28 139.5t78.5 116.5t121 86t155.5 49v223h177v-219q89 -8 156.5 -32.5
t112.5 -50.5q53 -31 91 -67l-109 -200q-45 35 -96 62q-45 23 -102 43t-121 20q-50 0 -91.5 -11.5t-71.5 -33t-47 -52.5t-17 -69q0 -49 29.5 -84.5t78 -63t110.5 -51t127 -49t127 -57t110.5 -75t78 -103t29.5 -140.5q0 -76 -26.5 -146t-77 -126.5t-124 -94t-167.5 -49.5v-219
h-177v219q-50 6 -93.5 17t-82 26t-70.5 31.5t-58 33.5q-61 39 -105 85z" />
    <glyph glyph-name="percent" unicode="%" horiz-adv-x="1620" 
d="M414 831q-70 0 -131 25.5t-106 69t-71 102.5t-26 127q0 66 26 125t71 103t106 70t131 26q69 0 130 -26t106 -70t71.5 -103t26.5 -125q0 -68 -26.5 -127t-71.5 -102.5t-106 -69t-130 -25.5zM1247 1454h240l-1116 -1454h-240zM414 1020q28 0 53 10.5t43.5 28.5t29.5 42.5
t11 53.5q0 28 -11 52.5t-29.5 43t-43.5 29t-53 10.5q-29 0 -53.5 -10.5t-42.5 -29t-28.5 -43t-10.5 -52.5q0 -29 10.5 -53.5t28.5 -42.5t42.5 -28.5t53.5 -10.5zM874 297q0 66 26 125t71 103t106 70t131 26q69 0 130 -26t106.5 -70t71.5 -103t26 -125q0 -67 -26 -125.5
t-71.5 -102t-106.5 -69t-130 -25.5q-70 0 -131 25.5t-106 69t-71 102t-26 125.5zM1073 299q0 -29 10.5 -53.5t29 -42.5t43 -28.5t52.5 -10.5t53.5 10.5t44 28.5t29.5 42.5t11 53.5q0 28 -11 52.5t-29.5 43t-44 29t-53.5 10.5t-52.5 -10.5t-43 -29t-29 -43t-10.5 -52.5z" />
    <glyph glyph-name="ampersand" unicode="&#x26;" horiz-adv-x="1401" 
d="M88 410q0 60 18 117t51 105.5t81 85t108 56.5v4q-55 24 -98 67q-18 18 -36 42.5t-31.5 55.5t-22 69t-8.5 84q0 97 38 169t103 119.5t151.5 71t184.5 23.5q36 0 70.5 -4t61.5 -9q32 -5 60 -12l-61 -209q-15 3 -32 6q-14 2 -31.5 4t-35.5 2q-51 0 -95 -12.5t-77 -37
t-52 -60.5t-19 -82q0 -35 10 -71t35.5 -65t68.5 -48t109 -19h272v197h258v-197h189v-213h-189v-180q0 -111 -37 -202.5t-107 -156t-170 -100t-226 -35.5q-123 0 -223 33.5t-170.5 92.5t-109 138t-38.5 171zM356 432q0 -48 19.5 -89t55 -70t86.5 -45.5t114 -16.5
q64 0 115.5 17t88 51t56.5 85t20 119v166h-288q-61 0 -110 -14t-84 -41.5t-54 -68t-19 -93.5z" />
    <glyph glyph-name="quotesingle" unicode="'" horiz-adv-x="434" 
d="M119 1481h196v-457h-196v457z" />
    <glyph glyph-name="parenleft" unicode="(" horiz-adv-x="672" 
d="M371 -195q-115 187 -179.5 415.5t-64.5 481.5q0 223 63 426.5t181 389.5h219q-113 -190 -172.5 -395t-59.5 -423q0 -230 58 -455.5t174 -439.5h-219z" />
    <glyph glyph-name="parenright" unicode=")" horiz-adv-x="674" 
d="M82 -195q116 214 173.5 439.5t57.5 455.5q0 218 -58.5 423t-172.5 395h221q118 -186 181 -389.5t63 -426.5q0 -253 -64.5 -481.5t-179.5 -415.5h-221z" />
    <glyph glyph-name="asterisk" unicode="*" horiz-adv-x="989" 
d="M164 793l172 204v4l-258 64l69 221l248 -100l-18 268h235l-20 -268l250 100l71 -219l-260 -66v-4l172 -202l-186 -138l-141 226h-4l-142 -226z" />
    <glyph glyph-name="plus" unicode="+" horiz-adv-x="1268" 
d="M86 686h442v485h211v-485h443v-203h-443v-483h-211v483h-442v203z" />
    <glyph glyph-name="comma" unicode="," horiz-adv-x="559" 
d="M178 264h258l-207 -508h-198z" />
    <glyph glyph-name="hyphen" unicode="-" horiz-adv-x="952" 
d="M168 698h616v-227h-616v227z" />
    <glyph glyph-name="period" unicode="." horiz-adv-x="547" 
d="M143 262h260v-262h-260v262z" />
    <glyph glyph-name="slash" unicode="/" horiz-adv-x="897" 
d="M598 1528h223l-522 -1614h-223z" />
    <glyph glyph-name="zero" unicode="0" horiz-adv-x="1276" 
d="M639 -25q-100 0 -178 27t-136.5 76t-99 117.5t-66 152.5t-37 180.5t-11.5 200.5q0 157 26.5 293.5t88 238t162.5 160t251 58.5q149 0 249.5 -58.5t162 -160t88 -238t26.5 -293.5q0 -105 -11.5 -201t-37 -180t-66 -152.5t-99 -117.5t-136 -76t-176.5 -27zM639 211
q75 0 124 40t78.5 110t41.5 164.5t12 203.5q0 108 -12 201.5t-41.5 163t-78.5 109.5t-124 40t-124.5 -40t-79 -109.5t-41 -163t-11.5 -201.5q0 -109 11.5 -203.5t41 -164.5t79 -110t124.5 -40z" />
    <glyph glyph-name="one" unicode="1" horiz-adv-x="1034" 
d="M102 215h318v819v36t1 32q0 17 1 31h-4q-5 -10 -14 -23q-8 -11 -20.5 -26.5t-29.5 -32.5l-116 -111l-156 164l364 350h232v-1239h313v-215h-889v215z" />
    <glyph glyph-name="two" unicode="2" horiz-adv-x="1217" 
d="M104 0q-6 35 -10 66.5t-4 62.5q0 98 30 176.5t79 142.5t111.5 116t127.5 97.5t127.5 88t111.5 86.5t79 92.5t30 107.5q0 52 -17 90.5t-47 64.5t-70.5 39t-86.5 13q-32 0 -60.5 -8t-54 -20.5t-47 -29t-39.5 -33.5q-41 -40 -73 -91l-185 127q42 81 110 145q29 27 66 53.5
t83.5 47t102 33t120.5 12.5q96 0 182 -28.5t151.5 -83.5t103.5 -135t38 -183q0 -85 -29 -153.5t-76.5 -125.5t-108.5 -104.5t-124.5 -90.5t-125 -83.5t-109.5 -83.5t-78 -90t-31 -103h502v184h229v-399h-1008z" />
    <glyph glyph-name="three" unicode="3" horiz-adv-x="1188" 
d="M129 1454h918v-186l-342 -406q70 -11 137 -41t119.5 -80.5t85 -122.5t32.5 -165t-34.5 -179.5t-100.5 -152.5t-162.5 -106t-220.5 -40q-58 0 -109 8.5t-96 22t-82.5 31t-68.5 35.5q-72 43 -125 98l131 188q43 -41 95 -74q45 -28 105.5 -50.5t133.5 -22.5q57 0 105 17.5
t83 48t54.5 73t19.5 92.5q0 54 -21 96.5t-59 72.5t-90.5 45.5t-114.5 15.5q-25 0 -46 -2t-34 -2l-59 129l315 385q10 11 21 22t20 19q11 10 21 18v4q-14 -2 -28 -3q-12 -2 -26.5 -2.5t-27.5 -0.5h-320v-172h-229v387z" />
    <glyph glyph-name="four" unicode="4" horiz-adv-x="1257" 
d="M49 537l629 917h313v-872h187v-207h-187v-375h-262v375h-680v162zM324 586v-4h405v485q0 20 2 41.5t4 40.5q3 22 6 43h-6q-7 -18 -16 -36q-8 -16 -18.5 -35.5t-22.5 -39.5z" />
    <glyph glyph-name="five" unicode="5" horiz-adv-x="1176" 
d="M205 352q39 -40 89 -71q42 -26 101.5 -48t132.5 -22q60 0 112.5 18.5t91 52t61 79.5t22.5 102q0 55 -20 101.5t-57.5 80t-92.5 52t-125 18.5q-55 0 -98 -10.5t-74 -22.5q-36 -15 -63 -33l-148 56l68 749h790v-387h-229v172h-332l-28 -285q-2 -11 -3 -21t-3 -18
q-2 -10 -3 -18h4q20 9 46 16q23 6 55.5 11.5t75.5 5.5q117 0 211 -36t160 -98t101 -146t35 -181q0 -105 -40 -195t-111.5 -156.5t-170.5 -104.5t-218 -38q-57 0 -107 8t-93.5 21t-80 29.5t-66.5 34.5q-70 41 -120 94z" />
    <glyph glyph-name="six" unicode="6" horiz-adv-x="1239" 
d="M664 -25q-118 0 -220.5 46t-178.5 133.5t-119.5 213.5t-43.5 287q0 100 18.5 200.5t55.5 192t93.5 170.5t132 137t170.5 91t210 33q66 0 119.5 -10t91.5 -21q45 -14 80 -31l-76 -221q-27 12 -60 23q-28 9 -65.5 16.5t-80.5 7.5q-86 0 -153 -33.5t-115.5 -89t-79 -127
t-44.5 -147.5h4q21 23 52 41.5t68.5 32t80 21t86.5 7.5q106 0 192.5 -39t148 -105t95 -153t33.5 -184q0 -102 -36.5 -191.5t-102 -156.5t-156.5 -105.5t-200 -38.5zM377 549q0 -57 21 -117t59 -109t90.5 -80.5t114.5 -31.5q52 0 93.5 19t71 53t45 81.5t15.5 104.5
q0 54 -17 102t-52 84t-88.5 57t-127.5 21q-48 0 -89.5 -13.5t-71.5 -38t-47 -58.5t-17 -74z" />
    <glyph glyph-name="seven" unicode="7" horiz-adv-x="1128" 
d="M762 1161q9 20 17.5 35t15.5 25q8 11 16 20v4q-12 -2 -27 -3q-26 -3 -67 -3h-414v-172h-227v387h1018v-184l-637 -1270h-275z" />
    <glyph glyph-name="eight" unicode="8" horiz-adv-x="1241" 
d="M100 412q0 54 13.5 100.5t34.5 86.5t47 72t51.5 56.5t46.5 41t33 24.5q-37 26 -68 56t-53 65.5t-34.5 77.5t-12.5 91q0 74 28 145t86 127t145 90t206 34q103 0 191 -28t152 -79t100 -124t36 -163q0 -70 -21.5 -131t-49 -108.5t-54.5 -80t-39 -44.5q43 -26 79.5 -58
t63 -71t41.5 -85.5t15 -100.5q0 -83 -34.5 -160.5t-100.5 -137.5t-161.5 -96.5t-217.5 -36.5q-119 0 -215.5 35t-164.5 94.5t-105.5 139t-37.5 168.5zM418 1079q0 -53 27 -90.5t72.5 -67.5t105 -55t125.5 -53q9 12 25.5 35t32.5 54t28 69.5t12 83.5q0 47 -16 83t-45 61
t-69.5 37.5t-90.5 12.5q-52 0 -90.5 -13t-64.5 -36t-39 -54t-13 -67zM365 440q0 -53 20.5 -96.5t55.5 -74t82 -47.5t100 -17q49 0 93.5 15t78 42t53.5 65t20 83q0 52 -27.5 88.5t-76 66.5t-115.5 58t-145 63q-15 -13 -38.5 -34.5t-46 -52.5t-38.5 -70.5t-16 -88.5z" />
    <glyph glyph-name="nine" unicode="9" horiz-adv-x="1239" 
d="M80 987q0 102 36.5 192t102 156.5t156.5 105t200 38.5q118 0 220.5 -46.5t178.5 -134t119.5 -213.5t43.5 -286q0 -99 -18 -198.5t-55 -191t-93 -171t-131.5 -138t-171.5 -92t-213 -33.5q-66 0 -120 9.5t-92 21.5q-46 13 -81 31l76 221q28 -13 61 -24q29 -9 66.5 -16
t80.5 -7q88 0 155 33t115.5 88.5t79 127.5t44.5 150h-4q-21 -22 -52 -40.5t-68.5 -31.5t-80 -20.5t-86.5 -7.5q-106 0 -192.5 39t-148 104.5t-95 152t-33.5 181.5zM352 987q0 -54 17 -101t51.5 -82.5t86.5 -56t122 -20.5q48 0 90 13.5t74 38t50.5 59t18.5 75.5q0 60 -23 119
t-62 106t-91.5 76t-110.5 29q-51 0 -92 -20t-70 -54.5t-45 -81t-16 -100.5z" />
    <glyph glyph-name="colon" unicode=":" horiz-adv-x="612" 
d="M176 262h260v-262h-260v262zM176 1044h260v-264h-260v264z" />
    <glyph glyph-name="semicolon" unicode=";" horiz-adv-x="616" 
d="M193 1044h253v-264h-253v264zM190 264h261l-189 -508h-199z" />
    <glyph glyph-name="less" unicode="&#x3c;" horiz-adv-x="1268" 
d="M109 670l985 438v-227l-711 -293v-4l711 -293v-228l-985 439v168z" />
    <glyph glyph-name="equal" unicode="=" horiz-adv-x="1268" 
d="M133 895h1000v-201h-1000v201zM133 475h1000v-201h-1000v201z" />
    <glyph glyph-name="greater" unicode="&#x3e;" horiz-adv-x="1268" 
d="M172 291l711 293v4l-711 293v227l985 -438v-168l-985 -439v228z" />
    <glyph glyph-name="question" unicode="?" horiz-adv-x="989" 
d="M289 518q0 74 25 129.5t62 99.5t81 80.5t81 73.5t62 78t25 94q0 36 -15 67t-42 54t-63.5 36t-78.5 13q-45 0 -83.5 -13.5t-68.5 -29.5q-35 -19 -65 -43l-146 178q44 41 102 74q50 28 121.5 51t162.5 23q87 0 167.5 -26.5t143 -76t100 -121t37.5 -161.5
q0 -85 -26.5 -146.5t-66.5 -109.5t-86 -87t-86 -77t-66.5 -80.5t-26.5 -97.5v-80h-250v98zM287 244h252v-244h-252v244z" />
    <glyph glyph-name="at" unicode="@" horiz-adv-x="1649" 
d="M76 494q0 106 26 203.5t75 182t119.5 154t159.5 118.5t194 76t224 27q141 0 242.5 -36.5t167 -98t96.5 -142.5t31 -169v-512h148v-186h-566q-104 0 -185.5 32t-138 85t-86.5 121.5t-30 142.5q0 73 29.5 140.5t85.5 119.5t138 83t187 31h172q-1 39 -24.5 72.5t-64.5 57.5
t-95.5 37.5t-116.5 13.5q-117 0 -214 -45.5t-167.5 -122.5t-109.5 -178.5t-39 -213.5q0 -109 38.5 -207.5t110.5 -173.5t175 -119t231 -44v-203q-183 0 -333 58t-256.5 160t-165 239.5t-58.5 296.5zM811 494q0 -39 14 -75t40 -63t63 -43t82 -16h155v401h-151
q-47 0 -84.5 -16t-64 -43.5t-40.5 -64.5t-14 -80z" />
    <glyph glyph-name="A" unicode="A" horiz-adv-x="1493" 
d="M25 201h133l436 1253h305l436 -1253h133v-201h-546v201h143l-90 272h-459l-90 -272h143v-201h-544v201zM913 682l-137 412q-8 26 -13 49.5t-8 40.5q-4 20 -5 37h-7q-2 -17 -6 -37q-3 -17 -7.5 -40.5t-12.5 -49.5l-139 -412h335z" />
    <glyph glyph-name="B" unicode="B" horiz-adv-x="1411" 
d="M102 201h174v1050h-174v203h668q82 0 142.5 -8t117.5 -31q49 -19 89.5 -51t70 -75t45.5 -96t16 -114q0 -102 -46.5 -184t-131.5 -127v-4q61 -18 105.5 -52.5t73.5 -80.5t43 -100t14 -111q0 -76 -23 -140.5t-62.5 -115.5t-92 -86t-111.5 -53q-54 -16 -106 -20.5t-111 -4.5
h-701v201zM801 860q43 0 76 14t55.5 39.5t34.5 60.5t12 77q0 54 -20.5 98.5t-63.5 67.5q-26 12 -56.5 17t-68.5 5h-225v-379h256zM815 215q26 0 54 3.5t51 12.5q27 12 48.5 32.5t36.5 47.5t23 58.5t8 66.5q0 47 -14.5 86t-41.5 66.5t-66 43t-89 15.5h-280v-432h270z" />
    <glyph glyph-name="C" unicode="C" horiz-adv-x="1526" 
d="M88 733q0 107 26.5 204.5t74.5 180t116 149.5t151 114t180 72.5t202 25.5q44 0 103 -5.5t122 -19t124.5 -35t109.5 -54t78 -76.5t30 -101v-197h-244v113q0 40 -32 68t-79 45t-101 24.5t-99 7.5q-105 0 -194 -35.5t-153.5 -101t-101 -159t-36.5 -208.5q0 -123 37.5 -222.5
t104.5 -170t158.5 -109t198.5 -38.5q22 0 54 2.5t67 9t70 17t62.5 26.5t45 37.5t17.5 50.5v113h243v-199q0 -54 -28.5 -96.5t-76 -74.5t-108 -54t-124 -36t-126 -20t-112.5 -6q-110 0 -209 26.5t-183.5 75.5t-152.5 118t-116 153t-73.5 181.5t-25.5 203.5z" />
    <glyph glyph-name="D" unicode="D" horiz-adv-x="1599" 
d="M102 201h174v1050h-174v203h629q88 0 160 -6.5t143 -28.5q106 -32 193 -93.5t148.5 -150t95.5 -201.5t34 -247q0 -129 -31.5 -239t-90 -197.5t-142 -150.5t-186.5 -97q-75 -26 -153 -34.5t-169 -8.5h-631v201zM721 215q69 0 126 7.5t111 29.5q62 25 112 69t85.5 104.5
t54.5 136.5t19 165q0 92 -20 169.5t-57 138t-88.5 104t-115.5 67.5q-56 22 -109 27.5t-118 5.5h-176v-1024h176z" />
    <glyph glyph-name="E" unicode="E" horiz-adv-x="1311" 
d="M102 201h174v1050h-174v203h1080v-375h-230v160h-407v-399h479v-215h-479v-410h438v164h229v-379h-1110v201z" />
    <glyph glyph-name="F" unicode="F" horiz-adv-x="1204" 
d="M102 201h174v1050h-174v203h1039v-377h-230v150h-366v-418h473v-215h-473v-393h192v-201h-635v201z" />
    <glyph glyph-name="G" unicode="G" horiz-adv-x="1573" 
d="M88 733q0 108 25.5 205.5t73 180t115.5 149.5t153.5 113.5t186.5 72t214 25.5q65 0 132.5 -8.5t130.5 -25t119 -41t97.5 -56.5t65.5 -71t24 -85v-201h-243v107q0 37 -27 65.5t-71.5 47.5t-101 28.5t-114.5 9.5q-116 0 -208.5 -35.5t-157.5 -101.5t-100 -159.5t-35 -209.5
q0 -117 35 -215.5t101 -170t161.5 -112t216.5 -40.5q29 0 65 3t73 9.5t72 18t62.5 28t44 39.5t16.5 53v156h-264v201h508v-439q0 -55 -30 -99t-79 -77t-112.5 -56.5t-130.5 -38t-132.5 -21.5t-119.5 -7q-167 0 -307.5 57.5t-242.5 159t-159 240t-57 301.5z" />
    <glyph glyph-name="H" unicode="H" horiz-adv-x="1751" 
d="M102 201h174v1050h-174v203h619v-203h-176v-420h661v420h-176v203h619v-203h-174v-1050h174v-201h-619v201h176v415h-661v-415h176v-201h-619v201z" />
    <glyph glyph-name="I" unicode="I" horiz-adv-x="825" 
d="M102 201h174v1050h-174v203h619v-203h-176v-1050h176v-201h-619v201z" />
    <glyph glyph-name="J" unicode="J" horiz-adv-x="1159" 
d="M41 514h258v-78q0 -44 9 -84.5t30 -72t56.5 -50t88.5 -18.5q38 0 70.5 12.5t56.5 39.5t38 69.5t14 103.5v815h-201v203h622v-203h-153v-825q0 -117 -39 -202.5t-102.5 -140.5t-144 -81.5t-163.5 -26.5q-81 0 -160 24.5t-141.5 78t-100.5 136.5t-38 200v100z" />
    <glyph glyph-name="K" unicode="K" horiz-adv-x="1462" 
d="M102 201h174v1050h-174v203h582v-203h-139v-395h162l276 395h-125v203h533v-203h-131l-351 -481v-4q14 -8 30 -22q14 -13 31 -34t34 -53l223 -405q14 -26 36.5 -38.5t59.5 -12.5h68v-201h-187q-46 0 -78 6t-54.5 19t-39.5 34t-33 50l-254 479q-17 29 -41 41t-67 12h-92
v-440h168v-201h-611v201z" />
    <glyph glyph-name="L" unicode="L" horiz-adv-x="1257" 
d="M104 201h175v1038h-175v215h619v-215h-176v-1024h430v225h229v-440h-1102v201z" />
    <glyph glyph-name="M" unicode="M" horiz-adv-x="1987" 
d="M78 201h172l86 1050h-176v203h473l323 -821q9 -27 15.5 -49.5t11.5 -38.5q5 -18 8 -33h4q4 15 9 33q5 16 11.5 38.5t16.5 49.5l322 821h473v-203h-174l84 -1050h172v-201h-596v201h162l-54 733q-2 19 -1.5 43t2.5 44q2 24 5 48h-6l-10 -46q-5 -20 -11.5 -42.5
t-13.5 -40.5l-278 -670h-229l-279 670q-7 18 -12.5 40.5t-10.5 42.5l-10 46h-8l4 -48q2 -20 3 -44t-1 -43l-53 -733h164v-201h-598v201z" />
    <glyph glyph-name="N" unicode="N" horiz-adv-x="1735" 
d="M102 201h174v1050h-174v203h443l612 -936q11 -18 20 -39t17 -40q9 -22 16 -44h7q-3 24 -5 49q-2 21 -3.5 44.5t-0.5 43.5v719h-180v203h623v-203h-174v-1251h-269l-612 932q-11 18 -20 39.5t-17 40.5q-9 22 -16 43h-8l6 -48q2 -20 3.5 -43.5t0.5 -43.5v-719h180v-201
h-623v201z" />
    <glyph glyph-name="O" unicode="O" horiz-adv-x="1679" 
d="M86 737q0 104 26 199.5t74 178t116 149.5t151.5 115t181 74t205.5 26q161 0 299 -57.5t239 -157.5t158 -235.5t57 -291.5q0 -107 -26 -205t-74 -182.5t-115.5 -154t-151 -118.5t-181.5 -75.5t-205 -26.5q-108 0 -205.5 26.5t-181 75.5t-151.5 118.5t-116 154t-74 182.5
t-26 205zM362 737q0 -112 38 -208.5t103 -167t152 -110.5t185 -40t185 40t152 110.5t102.5 167t37.5 208.5q0 108 -37.5 200.5t-102.5 160.5t-152 106.5t-185 38.5t-185 -38.5t-152 -106.5t-103 -160.5t-38 -200.5z" />
    <glyph glyph-name="P" unicode="P" horiz-adv-x="1358" 
d="M102 201h174v1050h-174v203h697q65 0 128 -7t117 -30q59 -24 107.5 -66t82.5 -97.5t52.5 -123t18.5 -143.5q0 -78 -19.5 -148.5t-56 -128t-87.5 -100.5t-114 -65q-51 -17 -106 -23t-117 -6h-260v-315h176v-201h-619v201zM770 731q46 0 81.5 6.5t66.5 22.5q58 29 88 88
t30 139q0 75 -27.5 131.5t-78.5 85.5q-31 19 -69.5 27t-88.5 8h-227v-508h225z" />
    <glyph glyph-name="Q" unicode="Q" horiz-adv-x="1690" 
d="M88 733q0 158 57 294.5t157.5 237t239 157.5t302.5 57q107 0 204.5 -24.5t181.5 -70t152 -111t116.5 -146.5t74.5 -176t26 -201q0 -140 -43.5 -258t-121.5 -216l165 -149l-151 -168l-164 162q-91 -72 -202 -109t-238 -37q-163 0 -301.5 59t-239.5 161.5t-158 241
t-57 296.5zM365 733q0 -111 37 -206t101.5 -165.5t152 -110.5t188.5 -40q65 0 134 20t122 62l-205 196l147 164l205 -202q37 60 59.5 133t22.5 153q0 107 -37.5 199.5t-102.5 160.5t-153.5 107t-191.5 39q-101 0 -188.5 -38.5t-152 -106.5t-101.5 -161.5t-37 -203.5z" />
    <glyph glyph-name="R" unicode="R" horiz-adv-x="1468" 
d="M102 201h174v1050h-174v203h641q81 0 148 -6t129 -25q61 -20 110.5 -54.5t84.5 -83t54 -111.5t19 -140q0 -76 -19 -140.5t-55 -115.5t-86.5 -88.5t-113.5 -58.5v-4q13 -7 25 -18q11 -9 23 -23.5t23 -34.5l168 -303q16 -28 39 -37.5t60 -9.5h47v-201h-170q-45 0 -76.5 5
t-54 18t-39 33.5t-33.5 52.5l-207 374q-12 21 -23.5 35t-27 23t-37.5 12.5t-53 3.5h-133v-356h168v-201h-611v201zM786 772q53 0 96.5 15.5t74 46t47 75t16.5 103.5q0 71 -27.5 123.5t-87.5 76.5q-31 14 -72 20.5t-92 6.5h-196v-467h241z" />
    <glyph glyph-name="S" unicode="S" horiz-adv-x="1219" 
d="M342 469v-109q0 -35 20.5 -63t56 -47t82 -29t97.5 -10q55 0 101.5 11.5t80 34.5t52 56.5t18.5 77.5q0 55 -28.5 93.5t-75.5 67.5t-107 52t-123 47q-73 28 -142 60.5t-123 80.5t-87 115.5t-33 165.5q0 110 41 187t109 126t156 71t181 22q86 0 169 -16.5t148 -48.5
t104.5 -80t39.5 -111v-191h-243v98q0 28 -18.5 49t-49.5 35t-70 21.5t-80 7.5q-44 0 -83.5 -9.5t-69 -29t-47 -49.5t-17.5 -72q0 -50 23.5 -85t63.5 -62t91.5 -48t108.5 -42q81 -29 159 -62.5t139 -82.5t98.5 -119t37.5 -172q0 -111 -43.5 -193t-116 -136t-167 -80
t-197.5 -26q-91 0 -180.5 20.5t-160.5 61.5t-115 102.5t-44 143.5v166h244z" />
    <glyph glyph-name="T" unicode="T" horiz-adv-x="1384" 
d="M383 201h174v1038h-274v-219h-228v434h1274v-434h-227v219h-277v-1038h176v-201h-618v201z" />
    <glyph glyph-name="U" unicode="U" horiz-adv-x="1657" 
d="M238 1251h-175v203h619v-203h-176v-704q0 -62 13 -115.5t36 -91.5q38 -62 110 -95.5t164 -33.5q91 0 162 33t111 98q49 82 49 207v702h-174v203h616v-203h-174v-704q0 -106 -27.5 -201t-78.5 -164q-40 -52 -93.5 -91t-115.5 -64.5t-132 -38.5t-143 -13q-77 0 -148 14
t-133 40t-113.5 64.5t-88.5 86.5q-57 71 -82.5 164t-25.5 203v704z" />
    <glyph glyph-name="V" unicode="V" horiz-adv-x="1473" 
d="M154 1251h-134v203h568v-203h-154l273 -829q7 -23 11.5 -46t7.5 -42q4 -22 5 -43h8q2 21 6 43q3 19 8 42t13 46l270 829h-151v203h567v-203h-135l-443 -1251h-278z" />
    <glyph glyph-name="W" unicode="W" horiz-adv-x="2083" 
d="M29 1454h567v-203h-170l188 -829q5 -23 8 -45.5t5 -40.5q3 -21 4 -41h8q1 20 5 41q3 18 7 40.5t11 45.5l272 1032h215l272 -1032q6 -23 10.5 -45.5t7.5 -40.5q4 -21 5 -41h8q0 20 3 41q2 18 5 40.5t8 45.5l189 829h-170v203h567v-203h-133l-309 -1251h-301l-244 918
q-6 22 -10.5 45.5t-7.5 43.5q-4 23 -5 44h-6q-2 -21 -5 -44q-3 -20 -7 -43.5t-10 -45.5l-244 -918h-301l-309 1251h-133v203z" />
    <glyph glyph-name="X" unicode="X" horiz-adv-x="1417" 
d="M66 201h129l366 536l-356 514h-129v203h549v-203h-144l201 -301q10 -12 18 -23.5t13 -19.5q6 -10 10 -18h4q0 -2 10 16.5t29 44.5l195 301h-140v203h529v-203h-127l-369 -534l363 -516h129v-201h-551v201h143l-203 305q-10 13 -17.5 25l-12.5 20q-6 10 -11 18h-4
q-3 0 -12.5 -18.5t-26.5 -44.5l-194 -305h141v-201h-532v201z" />
    <glyph glyph-name="Y" unicode="Y" horiz-adv-x="1348" 
d="M365 201h176v407l-387 643h-134v203h541v-203h-141l221 -381q15 -25 23 -45q4 -11 8 -20h4q4 9 9 20q5 9 10.5 20.5t13.5 24.5l221 381h-139v203h536v-203h-131l-387 -643v-407h174v-201h-618v201z" />
    <glyph glyph-name="Z" unicode="Z" horiz-adv-x="1317" 
d="M106 170l699 1001q11 15 21.5 28t19.5 22l20 20v4q-13 -2 -27 -3q-12 -2 -27 -2.5t-30 -0.5h-438v-219h-227v434h1073v-168l-698 -1003q-11 -16 -22 -28.5t-20 -21.5l-20 -20v-4q13 1 27 3q12 1 26.5 2t30.5 1h469v225h229v-440h-1106v170z" />
    <glyph glyph-name="bracketleft" unicode="[" horiz-adv-x="676" 
d="M186 1518h404v-189h-182v-1335h182v-189h-404v1713z" />
    <glyph glyph-name="backslash" unicode="\" horiz-adv-x="895" 
d="M76 1528h221l522 -1614h-221z" />
    <glyph glyph-name="bracketright" unicode="]" horiz-adv-x="676" 
d="M268 -6v1335h-182v189h403v-1713h-403v189h182z" />
    <glyph glyph-name="asciicircum" unicode="^" horiz-adv-x="1268" 
d="M545 1454h164l411 -952h-225l-268 678l-269 -678h-225z" />
    <glyph glyph-name="underscore" unicode="_" horiz-adv-x="1165" 
d="M1157 0v-201h-1149v201h1149z" />
    <glyph glyph-name="grave" unicode="`" horiz-adv-x="1010" 
d="M248 1829h280l224 -279h-228z" />
    <glyph glyph-name="a" unicode="a" horiz-adv-x="1157" 
d="M57 293q0 80 32 137t83 96t116 62.5t130 36t125 16.5t102 4h66v35q0 50 -15 84.5t-41 55.5t-61 30.5t-76 9.5q-59 0 -112 -15.5t-94 -34.5q-48 -22 -89 -50l-96 180q49 36 112 64q54 24 130.5 44.5t171.5 20.5q211 0 320.5 -105.5t109.5 -306.5v-417q0 -45 45 -45h94
v-195h-246q-36 0 -61.5 9t-41 24t-23 35t-7.5 43v12q0 25 3 39q1 8 3 14h-4q-28 -57 -74 -101q-20 -19 -45 -37t-57 -32t-70.5 -22.5t-83.5 -8.5q-67 0 -129.5 19.5t-110.5 59.5t-77 99.5t-29 139.5zM319 313q0 -29 10 -55t29.5 -45.5t48 -31t64.5 -11.5q53 0 97.5 26
t76.5 66.5t50 91t18 99.5v34h-43q-26 0 -62 -2t-75 -8t-77 -17.5t-68.5 -31t-49.5 -48t-19 -67.5z" />
    <glyph glyph-name="b" unicode="b" horiz-adv-x="1274" 
d="M162 1260h-160v194h420v-453q0 -20 -0.5 -35.5t-1.5 -27.5q-1 -14 -2 -25h4q29 44 74 78q19 15 43.5 29t54 25t65 17.5t76.5 6.5q106 0 192 -40t146.5 -112t93.5 -173t33 -222q0 -125 -36.5 -226t-100.5 -172t-152.5 -110t-191.5 -39q-43 0 -79 7t-66 18.5t-54 26.5
t-42 31q-43 36 -70 83h-5l2 -24q1 -11 2 -25t1 -29v-63h-246v1260zM416 516q0 -61 16 -118.5t48 -102.5t80.5 -72.5t113.5 -27.5q54 0 102 21.5t84 62.5t57 101t21 138q0 75 -19 135.5t-53.5 103t-82.5 66t-105 23.5q-51 0 -98 -19t-83.5 -59t-58.5 -102.5t-22 -149.5z" />
    <glyph glyph-name="c" unicode="c" horiz-adv-x="1143" 
d="M70 520q0 117 42.5 217t117.5 174t177.5 116t223.5 42q43 0 92 -5.5t96.5 -18t91 -32t76.5 -47.5t52.5 -64.5t19.5 -82.5v-143h-225v69q0 26 -18 45.5t-46.5 32t-63 19t-67.5 6.5q-71 0 -128 -23.5t-97 -66t-61 -101.5t-21 -131q0 -81 26 -142.5t70.5 -103.5t104 -63.5
t126.5 -21.5q55 0 105 13.5t92 33t75 41.5t54 39l92 -185q-27 -25 -69.5 -53.5t-98.5 -52.5t-122.5 -40t-141.5 -16q-114 0 -218.5 37.5t-183.5 108t-126 171.5t-47 228z" />
    <glyph glyph-name="d" unicode="d" horiz-adv-x="1313" 
d="M74 522q0 124 34.5 225.5t97.5 172.5t151 110t194 39q83 0 141 -23t93 -51q41 -33 67 -73h4q-1 9 -2 20q-1 10 -1.5 23t-0.5 30v265h-162v194h420v-1214q0 -45 45 -45h94v-195h-245q-36 0 -61 9t-41.5 24t-24 35t-7.5 43v12q0 22 3 34q2 7 4 13h-5q-26 -55 -73 -98
q-20 -18 -46 -35.5t-59.5 -31t-74 -22t-89.5 -8.5q-104 0 -188.5 40t-144 112.5t-91.5 173t-32 221.5zM336 522q0 -74 19 -134.5t53 -103.5t81.5 -66t104.5 -23q51 0 99 19t84.5 58t58.5 99.5t22 144.5q0 64 -16 123.5t-47.5 105.5t-80 73.5t-112.5 27.5q-55 0 -103.5 -21.5
t-84.5 -63t-57 -101.5t-21 -138z" />
    <glyph glyph-name="e" unicode="e" horiz-adv-x="1143" 
d="M72 522q0 121 39 221.5t109 173t167.5 112.5t214.5 40q113 0 199.5 -38.5t145.5 -105.5t89.5 -157.5t30.5 -194.5q0 -11 -1 -26t-2 -29q-2 -16 -3 -33h-723q6 -72 33.5 -126.5t70 -90.5t96.5 -54.5t113 -18.5q64 0 118.5 17t96.5 38q48 24 88 55l101 -184
q-49 -41 -113 -73q-55 -28 -132.5 -50.5t-176.5 -22.5q-130 0 -234 43.5t-176.5 118.5t-111.5 174.5t-39 210.5zM799 639q-2 54 -18 96.5t-43.5 72t-63.5 45t-78 15.5q-50 0 -92 -16.5t-74.5 -46.5t-54.5 -72.5t-31 -93.5h455z" />
    <glyph glyph-name="f" unicode="f" horiz-adv-x="801" 
d="M94 195h152v655h-162v194h162v48q0 84 20.5 145.5t54.5 103.5t77.5 68t89 40.5t89 19t78.5 4.5q23 0 43 -1.5t34 -3.5q17 -2 30 -4v-209q-9 1 -20 3q-10 2 -25 3t-35 1q-22 0 -52.5 -4.5t-58 -21t-46.5 -49t-19 -89.5v-54h235v-194h-235v-655h176v-195h-588v195z" />
    <glyph glyph-name="g" unicode="g" horiz-adv-x="1303" 
d="M252 -147q38 -20 84 -35q39 -14 92 -24.5t113 -10.5t113.5 14t94 45t64 81t23.5 122v66q0 9 0.5 18.5t1.5 17.5q1 10 2 19h-4q-47 -69 -116.5 -107.5t-174.5 -38.5q-113 0 -200.5 42.5t-147 114.5t-90.5 168t-31 204t30 202.5t88.5 165t145 111.5t199.5 41q47 0 95 -9
t91.5 -28.5t79.5 -49t57 -71.5h4l-2 10t-1.5 11t-0.5 14q0 42 28.5 70t90.5 28h260v-194h-100q-20 0 -32.5 -10.5t-12.5 -30.5v-746q0 -90 -22 -161t-60.5 -126t-91 -94t-113.5 -64t-128.5 -36.5t-135.5 -11.5q-99 0 -197.5 25t-175.5 65zM600 240q46 0 89.5 15t77.5 50
t54.5 94t20.5 148t-21 147t-56 92.5t-82 48t-99 13.5q-59 0 -105 -20.5t-77.5 -59t-47.5 -92t-16 -119.5q0 -68 17.5 -126t50.5 -100.5t82 -66.5t112 -24z" />
    <glyph glyph-name="h" unicode="h" horiz-adv-x="1391" 
d="M59 195h152v1065h-162v194h422v-508q0 -20 -1 -35.5t-2 -27.5q-2 -14 -3 -25h4q19 37 52.5 75t79 68t103 49t125.5 19q87 0 155 -23t114.5 -72t71 -124t24.5 -178v-477h152v-195h-412v618q0 48 -7 87t-25.5 67t-50.5 43.5t-81 15.5q-69 0 -124.5 -28t-94 -76t-59.5 -112
t-21 -136v-284h150v-195h-562v195z" />
    <glyph glyph-name="i" unicode="i" horiz-adv-x="717" 
d="M244 1454h262v-231h-262v231zM94 195h152v655h-162v194h422v-849h149v-195h-561v195z" />
    <glyph glyph-name="j" unicode="j" horiz-adv-x="643" 
d="M221 1454h262v-231h-262v231zM-33 -211q6 -1 13 -2q6 -1 14 -1.5t18 -0.5q28 0 64 6.5t68 28t54.5 61t22.5 105.5v864h-162v194h422v-1069q0 -88 -22.5 -151.5t-59 -107.5t-83 -71.5t-95 -42.5t-94.5 -20.5t-82 -5.5t-57 3q-12 1 -21 3v207z" />
    <glyph glyph-name="k" unicode="k" horiz-adv-x="1243" 
d="M59 195h152v1065h-162v194h422v-805h137l170 201h-121v194h502v-194h-135l-227 -268v-4q1 0 7.5 -4t17.5 -14t25.5 -27.5t29.5 -43.5l147 -258q13 -23 31 -29.5t55 -6.5h59v-195h-194q-33 0 -57 3.5t-42.5 13t-34 27t-30.5 46.5l-188 330q-16 28 -39.5 33.5t-51.5 5.5
h-61v-264h113v-195h-525v195z" />
    <glyph glyph-name="l" unicode="l" horiz-adv-x="631" 
d="M154 1260h-162v194h420v-1106q0 -35 4.5 -62t16.5 -45t32.5 -27t52.5 -9h19.5t15.5 1q8 0 14 1v-209q-13 -2 -28 -3q-26 -3 -66 -3q-62 0 -120 13t-102 50t-70.5 103.5t-26.5 173.5v928z" />
    <glyph glyph-name="m" unicode="m" horiz-adv-x="2042" 
d="M94 195h152v612q0 22 -12 32.5t-33 10.5h-117v194h272q70 0 104 -30.5t34 -85.5v-47q0 -9 -1 -17t-2 -14l-2 -14h5q20 40 54 81t79.5 75t101.5 55.5t121 21.5q109 0 184.5 -54t106.5 -173h4q21 46 57 87.5t83 72.5t103.5 49t118.5 18q79 0 141.5 -23.5t105.5 -72.5
t66 -123.5t23 -177.5v-477h152v-195h-412v623q0 44 -5.5 82t-21 66t-43.5 44t-73 16q-67 0 -117 -31t-83 -82t-49.5 -118t-16.5 -139v-266h151v-195h-410v623q0 42 -4.5 79.5t-19.5 66t-43 45.5t-74 17q-69 0 -119.5 -33.5t-83.5 -87.5t-49 -122.5t-16 -138.5v-254h149v-195
h-561v195z" />
    <glyph glyph-name="n" unicode="n" horiz-adv-x="1427" 
d="M94 195h152v610q0 22 -12 33.5t-33 11.5h-117v194h274q70 0 103 -30.5t33 -85.5v-47q0 -9 -1 -17t-2 -14l-2 -14h5q3 8 14.5 28.5t32.5 46.5t51.5 53.5t72.5 51t95 38.5t119 15q84 0 149 -23t109.5 -72t68 -124t23.5 -178v-477h151v-195h-409v618q0 48 -7.5 87t-26.5 67
t-51 43.5t-81 15.5q-71 0 -126.5 -31t-94 -82t-58.5 -116t-20 -133v-274h149v-195h-561v195z" />
    <glyph glyph-name="o" unicode="o" horiz-adv-x="1288" 
d="M70 522q0 120 45 220.5t122.5 173t182 113t223.5 40.5q120 0 225 -40.5t183 -113t123 -173t45 -220.5t-45 -220.5t-123 -173t-182.5 -113t-223.5 -40.5q-120 0 -224.5 40.5t-182.5 113t-123 173t-45 220.5zM334 522q0 -73 24.5 -133t67 -102.5t99 -66t120.5 -23.5
q63 0 119 23.5t98.5 66t67 102.5t24.5 133q0 72 -24.5 132t-67 103t-98.5 67t-119 24q-64 0 -120.5 -24t-99 -67t-67 -103t-24.5 -132z" />
    <glyph glyph-name="p" unicode="p" horiz-adv-x="1331" 
d="M221 -215v1020q0 45 -45 45h-117v194h269q36 0 60.5 -8t40 -21.5t22 -31t6.5 -37.5v-6q0 -10 -0.5 -18t-0.5 -15q-1 -8 -1 -14h4q29 49 76 88q20 16 45.5 32t58 28.5t71.5 20t85 7.5q106 0 191.5 -40t145.5 -112t92.5 -173t32.5 -222q0 -125 -36 -226t-99.5 -172
t-151 -110t-190.5 -39q-78 0 -134.5 23t-93.5 51q-43 33 -73 74h-4q1 -11 3 -25q1 -12 2 -28.5t1 -36.5v-248h152v-195h-563v195h151zM473 516q0 -61 16.5 -118.5t49.5 -102.5t81.5 -72.5t112.5 -27.5q54 0 101.5 21.5t83.5 62.5t56.5 101t20.5 138q0 75 -19 135.5
t-53.5 103t-82 66t-105.5 23.5q-51 0 -98 -19t-83.5 -59t-58.5 -102.5t-22 -149.5z" />
    <glyph glyph-name="q" unicode="q" horiz-adv-x="1272" 
d="M74 522q0 124 35 225.5t97.5 172.5t149.5 110t191 39q64 0 116 -16.5t92 -41t67.5 -52.5t43.5 -50h4q-1 8 -2 19q-1 9 -1.5 21.5t-0.5 27.5v67h244v-1259h152v-195h-562v195h152v258q0 20 0.5 36.5t1.5 28.5q1 14 2 25h-4q-29 -45 -73 -79q-38 -30 -97 -54.5t-143 -24.5
q-106 0 -192 40t-146.5 112.5t-93.5 173t-33 221.5zM336 522q0 -74 19 -134.5t53.5 -103.5t82 -66t105.5 -23q51 0 98 19t83.5 59t58.5 102t22 149q0 61 -16 119t-48 103t-81 72.5t-115 27.5q-53 0 -100.5 -21.5t-83.5 -63t-57 -101.5t-21 -138z" />
    <glyph glyph-name="r" unicode="r" horiz-adv-x="911" 
d="M94 195h152v610q0 22 -12 33.5t-33 11.5h-117v194h272q70 0 105 -30t35 -96v-62q0 -15 -0.5 -27t-1.5 -20q-1 -10 -2 -18h4q18 56 49.5 105t74 85t95 57t112.5 21q9 0 17.5 -0.5t15.5 -1.5q8 -1 14 -2v-256q-8 1 -18 2q-8 1 -19.5 1.5t-25.5 0.5q-79 0 -136.5 -32
t-95 -85t-55.5 -122t-18 -142v-227h149v-195h-561v195z" />
    <glyph glyph-name="s" unicode="s" horiz-adv-x="1010" 
d="M72 348h221v-61q0 -27 16.5 -47.5t45 -34t65.5 -20.5t78 -7q78 0 128 27t50 80q0 33 -17.5 55t-49 39.5t-75.5 32.5t-96 34q-57 20 -116 45.5t-106 62.5t-77 89t-30 127q0 83 37.5 140t96.5 92.5t132.5 51t144.5 15.5q57 0 123 -11.5t122.5 -37.5t94 -67.5t37.5 -100.5
v-133h-223v59q0 40 -42.5 63t-111.5 23q-31 0 -58.5 -5.5t-48 -17t-32.5 -29t-12 -42.5q0 -32 18 -55.5t48 -41.5t69.5 -32t83.5 -27q60 -19 122 -43t112 -60t82 -88.5t32 -129.5q0 -79 -35 -138.5t-95 -99.5t-140 -60t-170 -20q-72 0 -147 15.5t-136.5 47t-101 78.5
t-39.5 111v121z" />
    <glyph glyph-name="t" unicode="t" horiz-adv-x="780" 
d="M201 850h-160v194h168v285h252v-285h237v-194h-237v-440q0 -67 22 -107t54.5 -61.5t68.5 -28t64 -6.5h19.5t14.5 1q7 0 13 1v-213q-10 -2 -22 -3q-21 -3 -58 -3t-83.5 5t-95 19.5t-95 41t-82.5 70t-58 107t-22 150.5v467z" />
    <glyph glyph-name="u" unicode="u" horiz-adv-x="1386" 
d="M207 850h-162v194h422v-626q0 -47 7 -86t25.5 -66.5t50.5 -43t81 -15.5q67 0 121 31.5t91 84t57 119.5t20 138v270h-160v194h420v-806q0 -45 45 -45h100v-193h-258q-69 0 -102 30.5t-33 86.5v39v18.5t1 15.5q0 8 1 15h-4q-3 -9 -14 -29.5t-31.5 -46t-51 -53t-72 -50
t-94.5 -37t-118 -14.5q-78 0 -141.5 22t-108 70t-68.5 123.5t-24 182.5v477z" />
    <glyph glyph-name="v" unicode="v" horiz-adv-x="1229" 
d="M20 1044h502v-194h-116l180 -516q8 -20 12.5 -40t7.5 -37q4 -19 6 -38h6q2 19 6 38q3 17 7.5 37t11.5 40l182 516h-118v194h501v-194h-125l-319 -850h-299l-318 850h-127v194z" />
    <glyph glyph-name="w" unicode="w" horiz-adv-x="1776" 
d="M25 1044h501v-194h-125l138 -510q5 -20 7.5 -39.5t4.5 -36.5q2 -19 4 -37h6q1 18 4 37q2 17 5 36.5t8 39.5l196 702h230l194 -702q5 -20 7.5 -39.5t4.5 -36.5q2 -19 4 -37h7q0 18 3 37q2 17 5 36.5t8 39.5l139 510h-127v194h502v-194h-125l-242 -850h-294l-181 612
q-5 20 -8.5 40.5t-5.5 37.5q-3 19 -4 37h-6q-1 -18 -4 -37q-2 -17 -6 -37.5t-9 -40.5l-178 -612h-295l-241 850h-127v194z" />
    <glyph glyph-name="x" unicode="x" horiz-adv-x="1192" 
d="M80 195h149l230 337l-215 318h-160v194h322l161 -264q8 -14 15 -26.5t12 -23.5q6 -12 12 -23h4q5 11 12 23q5 11 13 23.5t16 26.5l164 264h299v-194h-145l-215 -311l237 -344h127v-195h-289l-184 293q-8 12 -16 25t-13 24q-7 12 -12 25h-4q-5 -12 -11 -24
q-5 -11 -12.5 -24.5t-15.5 -27.5l-180 -291h-301v195z" />
    <glyph glyph-name="y" unicode="y" horiz-adv-x="1241" 
d="M133 -168q18 -14 43 -25q20 -9 49.5 -16.5t65.5 -7.5q63 0 111 32t73 89l29 65l-359 881h-125v194h515v-194h-123l190 -528q14 -41 19 -74q3 -18 4 -35h6q2 17 6 35q6 33 22 74l189 528h-121v194h494v-194h-119l-385 -985q-30 -78 -73.5 -133.5t-97 -91.5t-115 -53
t-128.5 -17q-57 0 -103.5 11t-80.5 25q-40 16 -70 36z" />
    <glyph glyph-name="z" unicode="z" horiz-adv-x="1102" 
d="M623 791q11 14 22 24.5t19 18.5q10 9 18 16v4q-14 -1 -29 -2q-13 -1 -28.5 -1.5t-30.5 -0.5h-272v-152h-222v346h891v-167l-524 -623q-12 -14 -22.5 -24.5l-18.5 -18.5q-10 -9 -18 -16v-5l28 2q12 1 27 2t31 1h294v149h224v-344h-918v166z" />
    <glyph glyph-name="braceleft" unicode="{" horiz-adv-x="729" 
d="M236 344q0 38 -7.5 67.5t-20 51.5t-28.5 37.5t-32 26.5q-39 25 -87 30v227q48 5 87 30q16 10 32 26t28.5 39t20 53t7.5 69v177q0 78 18.5 133.5t49 94t69.5 62t79 36t78.5 16.5t67.5 4q14 0 26 -0.5t20 -0.5q10 -1 18 -1v-193q-5 0 -11 1q-5 0 -11.5 0.5t-14.5 0.5
q-21 0 -49.5 -5.5t-54.5 -23.5t-44 -52.5t-18 -92.5v-223q0 -39 -7.5 -70.5t-19.5 -57t-27 -45t-31 -34.5q-38 -34 -85 -53v-4q47 -17 85 -50q16 -14 31 -33.5t27 -45t19.5 -58t7.5 -71.5v-246q0 -59 18 -93.5t44 -52.5t54.5 -23t49.5 -5h14.5t11.5 1q6 0 11 1v-193
q-8 -1 -18 -2q-8 -1 -20 -1.5t-26 -0.5q-29 0 -67.5 4t-78.5 16.5t-79 36t-69.5 62t-49 95t-18.5 134.5v199z" />
    <glyph glyph-name="bar" unicode="|" horiz-adv-x="588" 
d="M182 1630h224v-1960h-224v1960z" />
    <glyph glyph-name="braceright" unicode="}" horiz-adv-x="729" 
d="M68 -6q4 -1 10 -1q5 -1 11.5 -1h14.5q21 0 49.5 5t54.5 23t44 52.5t18 93.5v246q0 39 7 71.5t19 58t27 45t31 33.5q37 33 84 50v4q-47 19 -84 53q-16 15 -31 34.5t-27 45t-19 57t-7 70.5v223q0 58 -18 92.5t-44 52.5t-54.5 23.5t-49.5 5.5q-8 0 -14.5 -0.5t-11.5 -0.5
q-6 -1 -10 -1v193q8 0 18 1q8 0 19.5 0.5t25.5 0.5q29 0 67 -4t78.5 -16.5t79.5 -36t69.5 -62t49.5 -94t19 -133.5v-177q0 -39 7.5 -69t19.5 -53t27.5 -39t32.5 -26q38 -25 87 -30v-227q-49 -5 -87 -30q-17 -11 -32.5 -26.5t-27.5 -37.5t-19.5 -51.5t-7.5 -67.5v-199
q0 -78 -19 -134.5t-49.5 -95t-69.5 -62t-79.5 -36t-78.5 -16.5t-67 -4q-14 0 -25.5 0.5t-19.5 1.5q-10 1 -18 2v193z" />
    <glyph glyph-name="asciitilde" unicode="~" horiz-adv-x="1264" 
d="M123 408q0 189 81 280.5t232 91.5q52 0 90.5 -14t69 -34.5t56 -44.5t50 -44.5t51 -34.5t60.5 -14t58.5 15t40.5 39.5t23 56.5t7 67h205q0 -189 -81.5 -281t-231.5 -92q-51 0 -89.5 13.5t-69 34.5t-55.5 44.5t-50 44.5t-52 34.5t-61 13.5t-58 -14.5t-39.5 -39t-22.5 -56.5
t-7 -66h-207z" />
    <glyph glyph-name="uni00A0" unicode="&#xa0;" horiz-adv-x="508" 
 />
    <glyph glyph-name="exclamdown" unicode="&#xa1;" horiz-adv-x="539" 
d="M141 1042h254v-243h-254v243zM156 623h227l20 -1033h-268z" />
    <glyph glyph-name="cent" unicode="&#xa2;" horiz-adv-x="1157" 
d="M508 152q-97 16 -177 66.5t-137 126.5t-88.5 173.5t-31.5 208.5t31.5 208.5t88.5 174t137 127.5t177 68v172h176v-172q68 -12 128.5 -41t110.5 -72t88.5 -98.5t63.5 -120.5l-235 -90q-15 37 -37.5 70.5t-52 58t-66 39t-80.5 14.5q-60 0 -109 -25t-84 -70t-54 -107
t-19 -136q0 -77 18 -139.5t52.5 -106.5t84 -68t111.5 -24q44 0 80.5 14t66 38.5t52 58t37.5 71.5l235 -90q-22 -55 -57.5 -110t-84.5 -100.5t-111.5 -77.5t-137.5 -41v-177h-176v177z" />
    <glyph glyph-name="sterling" unicode="&#xa3;" horiz-adv-x="1274" 
d="M86 207h172v430h-143v178h143v248q0 91 34.5 167t96.5 131.5t147.5 86.5t186.5 31q83 0 150.5 -22.5t115.5 -48.5q56 -32 101 -71l-142 -176q-31 23 -66 41q-30 15 -70 28t-83 13q-46 0 -83.5 -14.5t-64 -40t-41 -59.5t-14.5 -74v-240h348v-178h-348v-422h439v225h229
v-440h-1108v207z" />
    <glyph glyph-name="yen" unicode="&#xa5;" horiz-adv-x="1315" 
d="M190 539h334v67l-53 99h-281v155h201l-315 594h301l190 -389q17 -43 33.5 -84.5t28.5 -74.5q14 -39 26 -75h4q12 36 26 75q12 33 28.5 74.5t34.5 84.5l190 389h301l-315 -594h200v-155h-280l-51 -99v-67h331v-158h-331v-381h-269v381h-334v158z" />
    <glyph glyph-name="section" unicode="&#xa7;" horiz-adv-x="963" 
d="M133 987q-8 29 -11 59t-3 58q0 80 27.5 148.5t81 119t131.5 79t180 28.5q81 0 144 -20t108 -44q52 -28 90 -63l-117 -166q-28 22 -63 40q-30 15 -71 27.5t-89 12.5q-45 0 -83.5 -11t-67.5 -34t-45.5 -60t-16.5 -88q0 -22 4 -47.5t12 -54.5l141 -688h-202zM190 174
q30 -26 66 -45q31 -17 73 -31t93 -14q43 0 81.5 12t67 37.5t45.5 64.5t17 93q0 50 -19 117l-137 661h203l147 -704q8 -31 11.5 -60t3.5 -57q0 -81 -27.5 -149.5t-81 -118.5t-132 -78.5t-179.5 -28.5q-81 0 -144 19.5t-108 42.5q-52 27 -90 63z" />
    <glyph glyph-name="dieresis" unicode="&#xa8;" horiz-adv-x="1010" 
d="M621 1829h213v-238h-213v238zM176 1829h213v-238h-213v238z" />
    <glyph glyph-name="copyright" unicode="&#xa9;" horiz-adv-x="1632" 
d="M82 727q0 104 26 200t74 179.5t114.5 151.5t148 117t174.5 75.5t194 26.5q102 0 196.5 -26.5t176.5 -75.5t149 -117t115 -151.5t74 -179.5t26 -200q0 -156 -57.5 -293t-157.5 -239t-234 -161t-288 -59q-101 0 -194 27t-174.5 75.5t-148 117.5t-114.5 152.5t-74 179.5
t-26 200zM264 727q0 -123 42.5 -230t116.5 -186t174 -124.5t216 -45.5q118 0 220 45.5t177 124.5t117.5 186t42.5 230q0 122 -42.5 228.5t-117.5 185.5t-177 124.5t-220 45.5q-116 0 -216 -45.5t-174 -124.5t-116.5 -185.5t-42.5 -228.5zM440 723q0 81 28 153.5t79 127
t121.5 86.5t154.5 32q46 0 85 -9.5t71.5 -24.5t57.5 -34.5t45 -39.5q46 -48 73 -107l-156 -73q-16 33 -41 59q-21 22 -53 40.5t-76 18.5q-46 0 -83 -18t-63 -49t-40 -72.5t-14 -89.5q0 -49 13.5 -91t39 -72.5t62.5 -48t85 -17.5q45 0 77 18t53 41q25 26 40 59l156 -71
q-27 -61 -73 -109q-20 -20 -45 -39.5t-57.5 -34.5t-71.5 -24.5t-85 -9.5q-84 0 -154.5 32t-121.5 86.5t-79 127t-28 153.5z" />
    <glyph glyph-name="ordfeminine" unicode="&#xaa;" horiz-adv-x="864" 
d="M356 784q-41 0 -80.5 13.5t-70.5 39t-50.5 63t-19.5 85.5q0 55 21 93t54.5 63t75.5 39t84 20.5t81 8t65 1.5h16v15q0 30 -9 50.5t-24.5 32.5t-37 17.5t-45.5 5.5q-32 0 -62.5 -8.5t-53.5 -19.5q-27 -12 -52 -27l-68 121q29 21 69 39q34 14 82 26.5t111 12.5
q68 0 119.5 -18.5t86 -53t52 -84t17.5 -111.5v-411h-170v90h-4q-18 -29 -44 -52q-23 -20 -58 -35.5t-85 -15.5zM403 928q28 0 52 13t41 34t26.5 47t9.5 53v15h-24q-26 0 -58.5 -3t-61 -13t-47.5 -28t-19 -49t21.5 -50t59.5 -19zM137 684h588v-139h-588v139z" />
    <glyph glyph-name="guillemotleft" unicode="&#xab;" horiz-adv-x="1223" 
d="M872 999h248l-336 -421l336 -420h-248l-335 420zM76 578l336 421h247l-335 -421l335 -420h-247z" />
    <glyph glyph-name="logicalnot" unicode="&#xac;" horiz-adv-x="1214" 
d="M86 895h999v-602h-208v401h-791v201z" />
    <glyph glyph-name="uni00AD" unicode="&#xad;" horiz-adv-x="952" 
d="M168 698h616v-227h-616v227z" />
    <glyph glyph-name="registered" unicode="&#xae;" horiz-adv-x="1632" 
d="M82 727q0 104 26 200t74 179.5t114.5 151.5t148 117t174.5 75.5t194 26.5q102 0 196.5 -26.5t176.5 -75.5t149 -117t115 -151.5t74 -179.5t26 -200q0 -156 -57.5 -293t-157.5 -239t-234 -161t-288 -59q-101 0 -194 27t-174.5 75.5t-148 117.5t-114.5 152.5t-74 179.5
t-26 200zM264 727q0 -123 42.5 -230t116.5 -186t174 -124.5t216 -45.5q118 0 220 45.5t177 124.5t117.5 186t42.5 230q0 122 -42.5 228.5t-117.5 185.5t-177 124.5t-220 45.5q-116 0 -216 -45.5t-174 -124.5t-116.5 -185.5t-42.5 -228.5zM557 1106h311q55 0 100.5 -17
t78 -48t50 -75t17.5 -98q0 -44 -13.5 -77.5t-33.5 -57.5t-43 -39t-43 -20v-4q2 -3 6 -8q3 -5 8 -13.5t13 -21.5l141 -271h-193l-127 277h-98v-277h-174v750zM827 756q51 0 80 30t29 82q0 54 -28.5 82.5t-78.5 28.5h-98v-223h96z" />
    <glyph glyph-name="macron" unicode="&#xaf;" horiz-adv-x="1010" 
d="M238 1782h536v-178h-536v178z" />
    <glyph glyph-name="degree" unicode="&#xb0;" horiz-adv-x="823" 
d="M412 836q-70 0 -131 25t-106 68t-71 101.5t-26 126.5q0 66 26 125t71 103t106 70t131 26q69 0 130 -26t107 -70t72.5 -103t26.5 -125q0 -68 -26.5 -126.5t-72.5 -101.5t-107 -68t-130 -25zM412 1022q28 0 53 10.5t43.5 28.5t29.5 42.5t11 53.5q0 28 -11 52.5t-29.5 43
t-43.5 29t-53 10.5q-29 0 -53.5 -10.5t-43 -29t-29 -43t-10.5 -52.5q0 -29 10.5 -53.5t29 -42.5t43 -28.5t53.5 -10.5z" />
    <glyph glyph-name="plusminus" unicode="&#xb1;" horiz-adv-x="1268" 
d="M86 686h442v485h211v-485h443v-203h-443v-483h-211v483h-442v203zM1155 -174v-201h-1040v201h1040z" />
    <glyph glyph-name="uni00B2" unicode="&#xb2;" horiz-adv-x="788" 
d="M66 956q0 63 18.5 112.5t48.5 89t69 71t79 58.5t79 51t69 48.5t48.5 52t18.5 60.5q0 24 -10 43.5t-27 34t-39.5 22t-46.5 7.5q-37 0 -66.5 -15t-51.5 -33q-26 -21 -46 -47l-129 113q32 45 77 81q38 30 96 55.5t136 25.5q66 0 121.5 -19t96 -54.5t63 -85t22.5 -109.5
q0 -56 -17.5 -99.5t-46.5 -78.5t-66 -62.5t-76.5 -52t-77.5 -46.5t-68.5 -46t-50.5 -51t-23 -60h285v98h156v-254h-633q-2 16 -4 33q-2 14 -3 29.5t-1 27.5z" />
    <glyph glyph-name="uni00B3" unicode="&#xb3;" horiz-adv-x="784" 
d="M88 1765h598v-125l-209 -241q49 -9 91 -29t73 -51t48.5 -72.5t17.5 -95.5q0 -59 -23 -114t-65.5 -97.5t-104 -68t-139.5 -25.5q-80 0 -138 21t-97 47q-46 30 -77 69l101 131q21 -27 51 -48q26 -18 63 -33t87 -15q30 0 56 9.5t46 26.5t31.5 40.5t11.5 52.5t-13.5 51
t-35.5 36.5t-50.5 22t-58.5 7.5h-65l-39 92l176 215q8 9 16.5 16.5t15.5 13.5q8 7 15 13v8q-10 -2 -21 -4q-9 -2 -20.5 -3t-23.5 -1h-160v-105h-158v256z" />
    <glyph glyph-name="acute" unicode="&#xb4;" horiz-adv-x="1010" 
d="M479 1829h283l-277 -279h-227z" />
    <glyph glyph-name="uni00B5" unicode="&#xb5;" horiz-adv-x="1247" 
d="M137 1044h260v-618q0 -48 7 -87t25.5 -67t50 -43.5t79.5 -15.5q71 0 125.5 29t92 77.5t56.5 112t19 133.5v479h258v-1044h-250v127q0 11 0.5 22.5t1.5 21.5l2 22h-4q-31 -61 -80 -109q-21 -21 -49 -40.5t-62.5 -34.5t-76.5 -24.5t-92 -9.5q-40 0 -67.5 6.5t-45.5 14.5
q-21 10 -35 22h-4q3 -29 7 -59q2 -26 4.5 -55.5t2.5 -55.5v-258h-225v1454z" />
    <glyph glyph-name="uni00B5" unicode="&#x3bc;" horiz-adv-x="1247" 
d="M137 1044h260v-618q0 -48 7 -87t25.5 -67t50 -43.5t79.5 -15.5q71 0 125.5 29t92 77.5t56.5 112t19 133.5v479h258v-1044h-250v127q0 11 0.5 22.5t1.5 21.5l2 22h-4q-31 -61 -80 -109q-21 -21 -49 -40.5t-62.5 -34.5t-76.5 -24.5t-92 -9.5q-40 0 -67.5 6.5t-45.5 14.5
q-21 10 -35 22h-4q3 -29 7 -59q2 -26 4.5 -55.5t2.5 -55.5v-258h-225v1454z" />
    <glyph glyph-name="paragraph" unicode="&#xb6;" horiz-adv-x="1272" 
d="M545 494q-99 0 -186.5 37t-153.5 102t-104 153t-38 189t38 188.5t104 152t153.5 101.5t186.5 37h624v-227h-434v-1329h-190v596zM862 1114h189v-1216h-189v1216z" />
    <glyph glyph-name="periodcentered" unicode="&#xb7;" horiz-adv-x="578" 
d="M162 729h254v-262h-254v262z" />
    <glyph glyph-name="cedilla" unicode="&#xb8;" horiz-adv-x="1010" 
d="M432 55l121 -26v-17l-35 -123q35 -2 66.5 -14t55.5 -32.5t38 -49.5t14 -65q0 -50 -22 -85.5t-57 -57.5t-80 -32t-91 -10q-25 0 -47 2t-39 5q-20 4 -37 8v127q12 -4 27 -8q13 -3 30.5 -5t37.5 -2q17 0 35 2.5t33 9.5t24.5 19t9.5 31q0 18 -10 30t-26.5 19.5t-38 10.5
t-44.5 3h-41z" />
    <glyph glyph-name="uni00B9" unicode="&#xb9;" horiz-adv-x="725" 
d="M80 1022h207v430q0 30 3 47q1 10 3 17h-4l-8 -12q-8 -11 -25 -25l-84 -80l-115 125l254 241h170v-743h207v-156h-608v156z" />
    <glyph glyph-name="ordmasculine" unicode="&#xba;" horiz-adv-x="952" 
d="M477 786q-74 0 -139.5 25.5t-114.5 71.5t-77.5 110t-28.5 140q0 75 28.5 138t77 108t113.5 70.5t139 25.5q75 0 141 -25.5t115 -70.5t77 -108t28 -138q0 -76 -28 -140t-77 -110t-114 -71.5t-140 -25.5zM477 950q35 0 66.5 13.5t55 37.5t37 57.5t13.5 74.5q0 40 -13.5 73
t-37 57t-55 37t-66.5 13q-36 0 -67.5 -13t-55.5 -37t-37.5 -57t-13.5 -73q0 -41 13.5 -74.5t37.5 -57.5t55.5 -37.5t67.5 -13.5zM147 684h660v-139h-660v139z" />
    <glyph glyph-name="guillemotright" unicode="&#xbb;" horiz-adv-x="1221" 
d="M899 578l-336 421h246l336 -421l-336 -420h-246zM438 578l-336 421h248l336 -421l-336 -420h-248z" />
    <glyph glyph-name="onequarter" unicode="&#xbc;" horiz-adv-x="2007" 
d="M1628 210h-416v125l387 565h221v-542h119v-148h-119v-209h-192v209zM1628 358v266q0 16 1.5 33t3.5 31q2 17 5 32h-8q-6 -14 -12 -29q-5 -13 -12.5 -28t-16.5 -29l-195 -272v-4h234zM1251 1454h189l-688 -1454h-189zM113 712h207v430q0 30 3 47q1 10 3 17h-4l-8 -12
q-8 -11 -25 -25l-84 -80l-115 125l254 241h170v-743h207v-156h-608v156z" />
    <glyph glyph-name="onehalf" unicode="&#xbd;" horiz-adv-x="1982" 
d="M1258 91q0 63 18.5 112.5t48.5 89t69 71t79 58.5t79 51t69 48.5t48.5 52t18.5 60.5q0 24 -10 43.5t-27 34t-39.5 22t-46.5 7.5q-37 0 -66.5 -15t-51.5 -33q-26 -21 -46 -47l-129 113q32 45 77 81q38 30 96 55.5t136 25.5q66 0 121.5 -19t96 -54.5t63 -85t22.5 -109.5
q0 -56 -17.5 -99.5t-46.5 -78.5t-66 -62.5t-76.5 -52t-77.5 -46.5t-68.5 -46t-50.5 -51t-23 -60h285v98h156v-254h-633q-2 16 -4 33q-2 14 -3 29.5t-1 27.5zM1245 1454h189l-688 -1454h-189zM100 712h207v430q0 30 3 47q1 10 3 17h-4l-8 -12q-8 -11 -25 -25l-84 -80
l-115 125l254 241h170v-743h207v-156h-608v156z" />
    <glyph glyph-name="threequarters" unicode="&#xbe;" horiz-adv-x="2019" 
d="M1639 210h-416v125l387 565h221v-542h119v-148h-119v-209h-192v209zM1639 358v266q0 16 1.5 33t3.5 31q2 17 5 32h-8q-6 -14 -12 -29q-5 -13 -12.5 -28t-16.5 -29l-195 -272v-4h234zM111 1455h598v-125l-209 -241q49 -9 91 -29t73 -51t48.5 -72.5t17.5 -95.5
q0 -59 -23 -114t-65.5 -97.5t-104 -68t-139.5 -25.5q-80 0 -138 21t-97 47q-46 30 -77 69l101 131q21 -27 51 -48q26 -18 63 -33t87 -15q30 0 56 9.5t46 26.5t31.5 40.5t11.5 52.5t-13.5 51t-35.5 36.5t-50.5 22t-58.5 7.5h-65l-39 92l176 215q8 9 16.5 16.5t15.5 13.5
q8 7 15 13v8q-10 -2 -21 -4q-9 -2 -20.5 -3t-23.5 -1h-160v-105h-158v256zM1261 1454h189l-688 -1454h-189z" />
    <glyph glyph-name="questiondown" unicode="&#xbf;" horiz-adv-x="987" 
d="M446 1044h252v-243h-252v243zM90 -45q0 84 26.5 145.5t66.5 109.5t86.5 87t86.5 77.5t66.5 81t26.5 97.5v72h249v-90q0 -74 -25 -129.5t-62.5 -100t-81.5 -81.5t-81.5 -74t-62.5 -77.5t-25 -92.5q0 -36 15.5 -68t43 -55t64 -36.5t78.5 -13.5q44 0 83 13.5t69 30.5
q35 19 65 45l144 -181q-43 -41 -101 -73q-50 -27 -120.5 -49.5t-161.5 -22.5q-88 0 -169 26t-143.5 75t-99.5 120.5t-37 163.5z" />
    <glyph glyph-name="Agrave" unicode="&#xc0;" horiz-adv-x="1485" 
d="M22 201h133l436 1253h305l436 -1253h133v-201h-546v201h143l-90 272h-459l-90 -272h143v-201h-544v201zM910 682l-137 412q-8 26 -13 49.5t-8 40.5q-4 20 -5 37h-7q-2 -17 -6 -37q-3 -17 -7.5 -40.5t-12.5 -49.5l-139 -412h335zM383 1829h280l224 -279h-228z" />
    <glyph glyph-name="Aacute" unicode="&#xc1;" horiz-adv-x="1493" 
d="M25 201h133l436 1253h305l436 -1253h133v-201h-546v201h143l-90 272h-459l-90 -272h143v-201h-544v201zM913 682l-137 412q-8 26 -13 49.5t-8 40.5q-4 20 -5 37h-7q-2 -17 -6 -37q-3 -17 -7.5 -40.5t-12.5 -49.5l-139 -412h335zM817 1829h283l-277 -279h-227z" />
    <glyph glyph-name="Acircumflex" unicode="&#xc2;" horiz-adv-x="1493" 
d="M25 201h133l436 1253h305l436 -1253h133v-201h-546v201h143l-90 272h-459l-90 -272h143v-201h-544v201zM913 682l-137 412q-8 26 -13 49.5t-8 40.5q-4 20 -5 37h-7q-2 -17 -6 -37q-3 -17 -7.5 -40.5t-12.5 -49.5l-139 -412h335zM611 1829h266l188 -279h-217l-102 166h-4
l-103 -166h-217z" />
    <glyph glyph-name="Atilde" unicode="&#xc3;" horiz-adv-x="1493" 
d="M25 201h133l436 1253h305l436 -1253h133v-201h-546v201h143l-90 272h-459l-90 -272h143v-201h-544v201zM913 682l-137 412q-8 26 -13 49.5t-8 40.5q-4 20 -5 37h-7q-2 -17 -6 -37q-3 -17 -7.5 -40.5t-12.5 -49.5l-139 -412h335zM371 1552q0 281 229 281q54 0 90 -20.5
t63.5 -45t52 -45t55.5 -20.5q22 0 37 10t24.5 27.5t13.5 40t4 47.5h181q0 -140 -58 -210.5t-174 -70.5q-54 0 -89.5 20.5t-63.5 45t-52 45t-55 20.5q-21 0 -36 -10t-24.5 -27t-13.5 -40t-4 -48h-180z" />
    <glyph glyph-name="Adieresis" unicode="&#xc4;" horiz-adv-x="1493" 
d="M25 201h133l436 1253h305l436 -1253h133v-201h-546v201h143l-90 272h-459l-90 -272h143v-201h-544v201zM913 682l-137 412q-8 26 -13 49.5t-8 40.5q-4 20 -5 37h-7q-2 -17 -6 -37q-3 -17 -7.5 -40.5t-12.5 -49.5l-139 -412h335zM861 1829h213v-238h-213v238zM416 1829
h213v-238h-213v238z" />
    <glyph glyph-name="Aring" unicode="&#xc5;" horiz-adv-x="1493" 
d="M25 201h133l436 1253h305l436 -1253h133v-201h-546v201h143l-90 272h-459l-90 -272h143v-201h-544v201zM913 682l-137 412q-8 26 -13 49.5t-8 40.5q-4 20 -5 37h-7q-2 -17 -6 -37q-3 -17 -7.5 -40.5t-12.5 -49.5l-139 -412h335zM746 1520q-39 0 -77 11t-67 33t-47 54.5
t-18 75.5t18 75.5t47 55t67 34t77 11.5q40 0 78 -11.5t67.5 -34t47.5 -55t18 -75.5t-18 -75.5t-47.5 -54.5t-67.5 -33t-78 -11zM746 1618q35 0 55.5 21t20.5 55q0 37 -20.5 58.5t-55.5 21.5q-32 0 -53 -21.5t-21 -58.5q0 -34 20 -55t54 -21z" />
    <glyph glyph-name="AE" unicode="&#xc6;" horiz-adv-x="1968" 
d="M25 201h120l437 1050h-154v203h1411v-375h-215v160h-414v-399h473v-215h-473v-410h445v160h215v-375h-1100v201h172v428h-358l-170 -428h147v-201h-536v201zM942 831v408h-115l-163 -408h278z" />
    <glyph glyph-name="Ccedilla" unicode="&#xc7;" horiz-adv-x="1526" 
d="M745 -18q-145 17 -266 81.5t-208 164.5t-135 229t-48 276q0 107 26.5 204.5t74.5 180t116 149.5t151 114t180 72.5t202 25.5q44 0 103 -5.5t122 -19t124.5 -35t109.5 -54t78 -76.5t30 -101v-197h-244v113q0 40 -32 68t-79 45t-101 24.5t-99 7.5q-105 0 -194 -35.5
t-153.5 -101t-101 -159t-36.5 -208.5q0 -123 37.5 -222.5t104.5 -170t158.5 -109t198.5 -38.5q22 0 54 2.5t67 9t70 17t62.5 26.5t45 37.5t17.5 50.5v113h243v-199q0 -52 -26 -93t-69.5 -72t-100 -53.5t-117.5 -37t-121.5 -22t-111.5 -9.5l-23 -86q35 -2 66.5 -14
t55.5 -32.5t38 -49.5t14 -65q0 -50 -22 -85.5t-57 -57.5t-80 -32t-91 -10q-25 0 -47 2t-39 5q-20 4 -37 8v127q12 -4 27 -8q13 -3 30.5 -5t37.5 -2q17 0 35 2.5t33 9.5t24.5 19t9.5 31q0 18 -10 30t-26.5 19.5t-38 10.5t-44.5 3h-41z" />
    <glyph glyph-name="Egrave" unicode="&#xc8;" horiz-adv-x="1311" 
d="M102 201h174v1050h-174v203h1080v-375h-230v160h-407v-399h479v-215h-479v-410h438v164h229v-379h-1110v201zM322 1829h280l224 -279h-228z" />
    <glyph glyph-name="Eacute" unicode="&#xc9;" horiz-adv-x="1311" 
d="M751 1829h283l-277 -279h-227zM102 201h174v1050h-174v203h1080v-375h-230v160h-407v-399h479v-215h-479v-410h438v164h229v-379h-1110v201z" />
    <glyph glyph-name="Ecircumflex" unicode="&#xca;" horiz-adv-x="1311" 
d="M545 1829h266l188 -279h-217l-102 166h-4l-103 -166h-217zM102 201h174v1050h-174v203h1080v-375h-230v160h-407v-399h479v-215h-479v-410h438v164h229v-379h-1110v201z" />
    <glyph glyph-name="Edieresis" unicode="&#xcb;" horiz-adv-x="1311" 
d="M795 1829h213v-238h-213v238zM350 1829h213v-238h-213v238zM102 201h174v1050h-174v203h1080v-375h-230v160h-407v-399h479v-215h-479v-410h438v164h229v-379h-1110v201z" />
    <glyph glyph-name="Igrave" unicode="&#xcc;" horiz-adv-x="825" 
d="M102 201h174v1050h-174v203h619v-203h-176v-1050h176v-201h-619v201zM56 1829h280l224 -279h-228z" />
    <glyph glyph-name="Iacute" unicode="&#xcd;" horiz-adv-x="825" 
d="M102 201h174v1050h-174v203h619v-203h-176v-1050h176v-201h-619v201zM485 1829h283l-277 -279h-227z" />
    <glyph glyph-name="Icircumflex" unicode="&#xce;" horiz-adv-x="825" 
d="M102 201h174v1050h-174v203h619v-203h-176v-1050h176v-201h-619v201zM280 1829h266l188 -279h-217l-102 166h-4l-103 -166h-217z" />
    <glyph glyph-name="Idieresis" unicode="&#xcf;" horiz-adv-x="825" 
d="M102 201h174v1050h-174v203h619v-203h-176v-1050h176v-201h-619v201zM530 1829h213v-238h-213v238zM85 1829h213v-238h-213v238z" />
    <glyph glyph-name="Eth" unicode="&#xd0;" horiz-adv-x="1614" 
d="M102 201h174v415h-149v215h149v420h-174v203h674q169 0 306.5 -48.5t234.5 -141.5t150 -228t53 -307t-53 -307.5t-150 -229t-234.5 -143t-306.5 -49.5h-674v201zM762 215q109 0 197.5 33t151 98t96.5 161t34 222q0 124 -34.5 219.5t-97.5 160t-151 97.5t-196 33h-217
v-408h284v-215h-284v-401h217z" />
    <glyph glyph-name="Ntilde" unicode="&#xd1;" horiz-adv-x="1735" 
d="M102 201h174v1050h-174v203h443l612 -936q11 -18 20 -39t17 -40q9 -22 16 -44h7q-3 24 -5 49q-2 21 -3.5 44.5t-0.5 43.5v719h-180v203h623v-203h-174v-1251h-269l-612 932q-11 18 -20 39.5t-17 40.5q-9 22 -16 43h-8l6 -48q2 -20 3.5 -43.5t0.5 -43.5v-719h180v-201
h-623v201zM500 1552q0 281 229 281q54 0 90 -20.5t63.5 -45t52 -45t55.5 -20.5q22 0 37 10t24.5 27.5t13.5 40t4 47.5h181q0 -140 -58 -210.5t-174 -70.5q-54 0 -89.5 20.5t-63.5 45t-52 45t-55 20.5q-21 0 -36 -10t-24.5 -27t-13.5 -40t-4 -48h-180z" />
    <glyph glyph-name="Ograve" unicode="&#xd2;" horiz-adv-x="1679" 
d="M86 737q0 104 26 199.5t74 178t116 149.5t151.5 115t181 74t205.5 26q161 0 299 -57.5t239 -157.5t158 -235.5t57 -291.5q0 -107 -26 -205t-74 -182.5t-115.5 -154t-151 -118.5t-181.5 -75.5t-205 -26.5q-108 0 -205.5 26.5t-181 75.5t-151.5 118.5t-116 154t-74 182.5
t-26 205zM362 737q0 -112 38 -208.5t103 -167t152 -110.5t185 -40t185 40t152 110.5t102.5 167t37.5 208.5q0 108 -37.5 200.5t-102.5 160.5t-152 106.5t-185 38.5t-185 -38.5t-152 -106.5t-103 -160.5t-38 -200.5zM484 1829h280l224 -279h-228z" />
    <glyph glyph-name="Oacute" unicode="&#xd3;" horiz-adv-x="1679" 
d="M913 1829h283l-277 -279h-227zM86 737q0 104 26 199.5t74 178t116 149.5t151.5 115t181 74t205.5 26q161 0 299 -57.5t239 -157.5t158 -235.5t57 -291.5q0 -107 -26 -205t-74 -182.5t-115.5 -154t-151 -118.5t-181.5 -75.5t-205 -26.5q-108 0 -205.5 26.5t-181 75.5
t-151.5 118.5t-116 154t-74 182.5t-26 205zM362 737q0 -112 38 -208.5t103 -167t152 -110.5t185 -40t185 40t152 110.5t102.5 167t37.5 208.5q0 108 -37.5 200.5t-102.5 160.5t-152 106.5t-185 38.5t-185 -38.5t-152 -106.5t-103 -160.5t-38 -200.5z" />
    <glyph glyph-name="Ocircumflex" unicode="&#xd4;" horiz-adv-x="1679" 
d="M707 1829h266l188 -279h-217l-102 166h-4l-103 -166h-217zM86 737q0 104 26 199.5t74 178t116 149.5t151.5 115t181 74t205.5 26q161 0 299 -57.5t239 -157.5t158 -235.5t57 -291.5q0 -107 -26 -205t-74 -182.5t-115.5 -154t-151 -118.5t-181.5 -75.5t-205 -26.5
q-108 0 -205.5 26.5t-181 75.5t-151.5 118.5t-116 154t-74 182.5t-26 205zM362 737q0 -112 38 -208.5t103 -167t152 -110.5t185 -40t185 40t152 110.5t102.5 167t37.5 208.5q0 108 -37.5 200.5t-102.5 160.5t-152 106.5t-185 38.5t-185 -38.5t-152 -106.5t-103 -160.5
t-38 -200.5z" />
    <glyph glyph-name="Otilde" unicode="&#xd5;" horiz-adv-x="1679" 
d="M86 737q0 104 26 199.5t74 178t116 149.5t151.5 115t181 74t205.5 26q161 0 299 -57.5t239 -157.5t158 -235.5t57 -291.5q0 -107 -26 -205t-74 -182.5t-115.5 -154t-151 -118.5t-181.5 -75.5t-205 -26.5q-108 0 -205.5 26.5t-181 75.5t-151.5 118.5t-116 154t-74 182.5
t-26 205zM362 737q0 -112 38 -208.5t103 -167t152 -110.5t185 -40t185 40t152 110.5t102.5 167t37.5 208.5q0 108 -37.5 200.5t-102.5 160.5t-152 106.5t-185 38.5t-185 -38.5t-152 -106.5t-103 -160.5t-38 -200.5zM467 1552q0 281 229 281q54 0 90 -20.5t63.5 -45t52 -45
t55.5 -20.5q22 0 37 10t24.5 27.5t13.5 40t4 47.5h181q0 -140 -58 -210.5t-174 -70.5q-54 0 -89.5 20.5t-63.5 45t-52 45t-55 20.5q-21 0 -36 -10t-24.5 -27t-13.5 -40t-4 -48h-180z" />
    <glyph glyph-name="Odieresis" unicode="&#xd6;" horiz-adv-x="1679" 
d="M957 1829h213v-238h-213v238zM512 1829h213v-238h-213v238zM86 737q0 104 26 199.5t74 178t116 149.5t151.5 115t181 74t205.5 26q161 0 299 -57.5t239 -157.5t158 -235.5t57 -291.5q0 -107 -26 -205t-74 -182.5t-115.5 -154t-151 -118.5t-181.5 -75.5t-205 -26.5
q-108 0 -205.5 26.5t-181 75.5t-151.5 118.5t-116 154t-74 182.5t-26 205zM362 737q0 -112 38 -208.5t103 -167t152 -110.5t185 -40t185 40t152 110.5t102.5 167t37.5 208.5q0 108 -37.5 200.5t-102.5 160.5t-152 106.5t-185 38.5t-185 -38.5t-152 -106.5t-103 -160.5
t-38 -200.5z" />
    <glyph glyph-name="multiply" unicode="&#xd7;" horiz-adv-x="1268" 
d="M496 586l-404 442l144 143l397 -438l399 438l144 -143l-406 -442l406 -445l-144 -141l-399 438l-397 -438l-144 141z" />
    <glyph glyph-name="Oslash" unicode="&#xd8;" horiz-adv-x="1675" 
d="M334 166q-116 103 -182 250t-66 321q0 104 26 199.5t74 178t116 149.5t151.5 115t181 74t203.5 26q105 0 198 -25t174 -70l90 123l117 -80l-88 -122q122 -103 191 -248.5t69 -319.5q0 -107 -26 -205t-73.5 -182.5t-115.5 -154t-151.5 -118.5t-180.5 -75.5t-204 -26.5
q-110 0 -207 27t-182 80l-97 -135l-119 80zM1063 1178q-51 27 -107 43t-118 16q-99 0 -186.5 -38t-153 -104.5t-103 -158t-37.5 -199.5q0 -106 35 -197t96 -159zM596 287q53 -34 114.5 -52t127.5 -18q100 0 187 39t152 108.5t102.5 165t37.5 207.5q0 107 -37.5 198
t-103.5 157z" />
    <glyph glyph-name="Ugrave" unicode="&#xd9;" horiz-adv-x="1657" 
d="M238 1251h-175v203h619v-203h-176v-704q0 -62 13 -115.5t36 -91.5q38 -62 110 -95.5t164 -33.5q91 0 162 33t111 98q49 82 49 207v702h-174v203h616v-203h-174v-704q0 -106 -27.5 -201t-78.5 -164q-40 -52 -93.5 -91t-115.5 -64.5t-132 -38.5t-143 -13q-77 0 -148 14
t-133 40t-113.5 64.5t-88.5 86.5q-57 71 -82.5 164t-25.5 203v704zM471 1829h280l224 -279h-228z" />
    <glyph glyph-name="Uacute" unicode="&#xda;" horiz-adv-x="1657" 
d="M903 1829h283l-277 -279h-227zM238 1251h-175v203h619v-203h-176v-704q0 -62 13 -115.5t36 -91.5q38 -62 110 -95.5t164 -33.5q91 0 162 33t111 98q49 82 49 207v702h-174v203h616v-203h-174v-704q0 -106 -27.5 -201t-78.5 -164q-40 -52 -93.5 -91t-115.5 -64.5
t-132 -38.5t-143 -13q-77 0 -148 14t-133 40t-113.5 64.5t-88.5 86.5q-57 71 -82.5 164t-25.5 203v704z" />
    <glyph glyph-name="Ucircumflex" unicode="&#xdb;" horiz-adv-x="1657" 
d="M697 1829h266l188 -279h-217l-102 166h-4l-103 -166h-217zM238 1251h-175v203h619v-203h-176v-704q0 -62 13 -115.5t36 -91.5q38 -62 110 -95.5t164 -33.5q91 0 162 33t111 98q49 82 49 207v702h-174v203h616v-203h-174v-704q0 -106 -27.5 -201t-78.5 -164
q-40 -52 -93.5 -91t-115.5 -64.5t-132 -38.5t-143 -13q-77 0 -148 14t-133 40t-113.5 64.5t-88.5 86.5q-57 71 -82.5 164t-25.5 203v704z" />
    <glyph glyph-name="Udieresis" unicode="&#xdc;" horiz-adv-x="1657" 
d="M945 1829h213v-238h-213v238zM500 1829h213v-238h-213v238zM238 1251h-175v203h619v-203h-176v-704q0 -62 13 -115.5t36 -91.5q38 -62 110 -95.5t164 -33.5q91 0 162 33t111 98q49 82 49 207v702h-174v203h616v-203h-174v-704q0 -106 -27.5 -201t-78.5 -164
q-40 -52 -93.5 -91t-115.5 -64.5t-132 -38.5t-143 -13q-77 0 -148 14t-133 40t-113.5 64.5t-88.5 86.5q-57 71 -82.5 164t-25.5 203v704z" />
    <glyph glyph-name="Yacute" unicode="&#xdd;" horiz-adv-x="1348" 
d="M365 201h176v407l-387 643h-134v203h541v-203h-141l221 -381q15 -25 23 -45q4 -11 8 -20h4q4 9 9 20q5 9 10.5 20.5t13.5 24.5l221 381h-139v203h536v-203h-131l-387 -643v-407h174v-201h-618v201zM751 1829h283l-277 -279h-227z" />
    <glyph glyph-name="Thorn" unicode="&#xde;" horiz-adv-x="1348" 
d="M102 201h174v1050h-174v203h619v-203h-180v-125h319q102 0 183.5 -26.5t138.5 -75.5t87.5 -120t30.5 -159q0 -90 -30.5 -162t-87.5 -123t-138.5 -78.5t-183.5 -27.5h-319v-153h180v-201h-619v201zM797 555q117 0 176 49t59 141q0 91 -58.5 136t-172.5 45h-260v-371h256z
" />
    <glyph glyph-name="germandbls" unicode="&#xdf;" horiz-adv-x="1307" 
d="M59 195h152v888q0 97 40 171t106.5 124t151.5 75.5t175 25.5q88 0 165 -27t134 -74.5t90 -113t33 -142.5q0 -47 -13.5 -83t-33.5 -66.5t-44 -56t-44 -50t-33.5 -49.5t-13.5 -55t24.5 -56.5t61 -54.5t79 -59.5t79 -71.5t61 -90t24.5 -115q0 -83 -30.5 -144.5t-81.5 -102.5
t-117.5 -61.5t-138.5 -20.5q-71 0 -122.5 8t-85.5 18q-40 11 -67 27v221q32 -16 70 -27q32 -10 75 -18t93 -8q28 0 54.5 6.5t46.5 21t32 38t12 57.5t-24.5 63.5t-61.5 58t-79.5 59t-79.5 66t-61.5 79.5t-24.5 100q0 40 13.5 73.5t33.5 62.5t44 55.5t44 53.5t33.5 55.5
t13.5 61.5q0 27 -11 52t-32 44.5t-52.5 31t-72.5 11.5q-39 0 -76 -11t-65.5 -34.5t-46 -59.5t-17.5 -87v-1065h-412v195z" />
    <glyph glyph-name="agrave" unicode="&#xe0;" horiz-adv-x="1157" 
d="M57 293q0 80 32 137t83 96t116 62.5t130 36t125 16.5t102 4h66v35q0 50 -15 84.5t-41 55.5t-61 30.5t-76 9.5q-59 0 -112 -15.5t-94 -34.5q-48 -22 -89 -50l-96 180q49 36 112 64q54 24 130.5 44.5t171.5 20.5q211 0 320.5 -105.5t109.5 -306.5v-417q0 -45 45 -45h94
v-195h-246q-36 0 -61.5 9t-41 24t-23 35t-7.5 43v12q0 25 3 39q1 8 3 14h-4q-28 -57 -74 -101q-20 -19 -45 -37t-57 -32t-70.5 -22.5t-83.5 -8.5q-67 0 -129.5 19.5t-110.5 59.5t-77 99.5t-29 139.5zM319 313q0 -29 10 -55t29.5 -45.5t48 -31t64.5 -11.5q53 0 97.5 26
t76.5 66.5t50 91t18 99.5v34h-43q-26 0 -62 -2t-75 -8t-77 -17.5t-68.5 -31t-49.5 -48t-19 -67.5zM194 1453h280l224 -279h-228z" />
    <glyph glyph-name="aacute" unicode="&#xe1;" horiz-adv-x="1157" 
d="M57 293q0 80 32 137t83 96t116 62.5t130 36t125 16.5t102 4h66v35q0 50 -15 84.5t-41 55.5t-61 30.5t-76 9.5q-59 0 -112 -15.5t-94 -34.5q-48 -22 -89 -50l-96 180q49 36 112 64q54 24 130.5 44.5t171.5 20.5q211 0 320.5 -105.5t109.5 -306.5v-417q0 -45 45 -45h94
v-195h-246q-36 0 -61.5 9t-41 24t-23 35t-7.5 43v12q0 25 3 39q1 8 3 14h-4q-28 -57 -74 -101q-20 -19 -45 -37t-57 -32t-70.5 -22.5t-83.5 -8.5q-67 0 -129.5 19.5t-110.5 59.5t-77 99.5t-29 139.5zM319 313q0 -29 10 -55t29.5 -45.5t48 -31t64.5 -11.5q53 0 97.5 26
t76.5 66.5t50 91t18 99.5v34h-43q-26 0 -62 -2t-75 -8t-77 -17.5t-68.5 -31t-49.5 -48t-19 -67.5zM622 1453h283l-277 -279h-227z" />
    <glyph glyph-name="acircumflex" unicode="&#xe2;" horiz-adv-x="1157" 
d="M57 293q0 80 32 137t83 96t116 62.5t130 36t125 16.5t102 4h66v35q0 50 -15 84.5t-41 55.5t-61 30.5t-76 9.5q-59 0 -112 -15.5t-94 -34.5q-48 -22 -89 -50l-96 180q49 36 112 64q54 24 130.5 44.5t171.5 20.5q211 0 320.5 -105.5t109.5 -306.5v-417q0 -45 45 -45h94
v-195h-246q-36 0 -61.5 9t-41 24t-23 35t-7.5 43v12q0 25 3 39q1 8 3 14h-4q-28 -57 -74 -101q-20 -19 -45 -37t-57 -32t-70.5 -22.5t-83.5 -8.5q-67 0 -129.5 19.5t-110.5 59.5t-77 99.5t-29 139.5zM319 313q0 -29 10 -55t29.5 -45.5t48 -31t64.5 -11.5q53 0 97.5 26
t76.5 66.5t50 91t18 99.5v34h-43q-26 0 -62 -2t-75 -8t-77 -17.5t-68.5 -31t-49.5 -48t-19 -67.5zM416 1453h266l188 -279h-217l-102 166h-4l-103 -166h-217z" />
    <glyph glyph-name="atilde" unicode="&#xe3;" horiz-adv-x="1157" 
d="M57 293q0 80 32 137t83 96t116 62.5t130 36t125 16.5t102 4h66v35q0 50 -15 84.5t-41 55.5t-61 30.5t-76 9.5q-59 0 -112 -15.5t-94 -34.5q-48 -22 -89 -50l-96 180q49 36 112 64q54 24 130.5 44.5t171.5 20.5q211 0 320.5 -105.5t109.5 -306.5v-417q0 -45 45 -45h94
v-195h-246q-36 0 -61.5 9t-41 24t-23 35t-7.5 43v12q0 25 3 39q1 8 3 14h-4q-28 -57 -74 -101q-20 -19 -45 -37t-57 -32t-70.5 -22.5t-83.5 -8.5q-67 0 -129.5 19.5t-110.5 59.5t-77 99.5t-29 139.5zM319 313q0 -29 10 -55t29.5 -45.5t48 -31t64.5 -11.5q53 0 97.5 26
t76.5 66.5t50 91t18 99.5v34h-43q-26 0 -62 -2t-75 -8t-77 -17.5t-68.5 -31t-49.5 -48t-19 -67.5zM176 1176q0 281 229 281q54 0 90 -20.5t63.5 -45t52 -45t55.5 -20.5q22 0 37 10t24.5 27.5t13.5 40t4 47.5h181q0 -140 -58 -210.5t-174 -70.5q-54 0 -89.5 20.5t-63.5 45
t-52 45t-55 20.5q-21 0 -36 -10t-24.5 -27t-13.5 -40t-4 -48h-180z" />
    <glyph glyph-name="adieresis" unicode="&#xe4;" horiz-adv-x="1157" 
d="M57 293q0 80 32 137t83 96t116 62.5t130 36t125 16.5t102 4h66v35q0 50 -15 84.5t-41 55.5t-61 30.5t-76 9.5q-59 0 -112 -15.5t-94 -34.5q-48 -22 -89 -50l-96 180q49 36 112 64q54 24 130.5 44.5t171.5 20.5q211 0 320.5 -105.5t109.5 -306.5v-417q0 -45 45 -45h94
v-195h-246q-36 0 -61.5 9t-41 24t-23 35t-7.5 43v12q0 25 3 39q1 8 3 14h-4q-28 -57 -74 -101q-20 -19 -45 -37t-57 -32t-70.5 -22.5t-83.5 -8.5q-67 0 -129.5 19.5t-110.5 59.5t-77 99.5t-29 139.5zM319 313q0 -29 10 -55t29.5 -45.5t48 -31t64.5 -11.5q53 0 97.5 26
t76.5 66.5t50 91t18 99.5v34h-43q-26 0 -62 -2t-75 -8t-77 -17.5t-68.5 -31t-49.5 -48t-19 -67.5zM666 1453h213v-238h-213v238zM221 1453h213v-238h-213v238z" />
    <glyph glyph-name="aring" unicode="&#xe5;" horiz-adv-x="1157" 
d="M57 293q0 80 32 137t83 96t116 62.5t130 36t125 16.5t102 4h66v35q0 50 -15 84.5t-41 55.5t-61 30.5t-76 9.5q-59 0 -112 -15.5t-94 -34.5q-48 -22 -89 -50l-96 180q49 36 112 64q54 24 130.5 44.5t171.5 20.5q211 0 320.5 -105.5t109.5 -306.5v-417q0 -45 45 -45h94
v-195h-246q-36 0 -61.5 9t-41 24t-23 35t-7.5 43v12q0 25 3 39q1 8 3 14h-4q-28 -57 -74 -101q-20 -19 -45 -37t-57 -32t-70.5 -22.5t-83.5 -8.5q-67 0 -129.5 19.5t-110.5 59.5t-77 99.5t-29 139.5zM319 313q0 -29 10 -55t29.5 -45.5t48 -31t64.5 -11.5q53 0 97.5 26
t76.5 66.5t50 91t18 99.5v34h-43q-26 0 -62 -2t-75 -8t-77 -17.5t-68.5 -31t-49.5 -48t-19 -67.5zM551 1144q-39 0 -77 11t-67 33t-47 54.5t-18 75.5t18 75.5t47 55t67 34t77 11.5q40 0 78 -11.5t67.5 -34t47.5 -55t18 -75.5t-18 -75.5t-47.5 -54.5t-67.5 -33t-78 -11z
M551 1242q35 0 55.5 21t20.5 55q0 37 -20.5 58.5t-55.5 21.5q-32 0 -53 -21.5t-21 -58.5q0 -34 20 -55t54 -21z" />
    <glyph glyph-name="ae" unicode="&#xe6;" horiz-adv-x="1753" 
d="M57 297q0 80 31 136.5t82 94.5t116.5 60.5t133.5 34t133.5 15t116.5 3.5h41v29q0 55 -14.5 91.5t-40.5 58.5t-62 31t-78 9q-59 0 -112 -15.5t-95 -34.5q-48 -22 -90 -50l-96 180q49 36 113 64q54 24 131 44.5t172 20.5q66 0 117.5 -10.5t91 -30.5t68.5 -48.5t50 -64.5h4
q62 76 149 115t200 39q109 0 194.5 -38.5t144.5 -106t90 -158t31 -195.5q0 -11 -1 -25.5t-2 -28.5q-2 -16 -3 -32h-715q7 -75 34 -131t68 -92.5t94 -55t112 -18.5q63 0 117.5 17.5t95.5 39.5q48 26 88 58l100 -178q-50 -42 -113 -75q-55 -29 -132 -52t-175 -23
q-156 0 -264.5 61.5t-171.5 168.5h-4q-6 -12 -19 -34t-35 -47t-53.5 -51.5t-73 -47.5t-94.5 -34.5t-118 -13.5q-72 0 -137 21.5t-114 62.5t-77.5 100.5t-28.5 135.5zM1417 641q-2 51 -18.5 93t-43.5 71t-62.5 45t-75.5 16q-101 0 -165 -58.5t-85 -166.5h450zM313 309
q0 -27 10.5 -51t30 -43t48.5 -30t67 -11q53 0 97.5 25t77 65t51 90t18.5 99v30h-72q-53 0 -111 -6.5t-106 -25.5t-79.5 -53t-31.5 -89z" />
    <glyph glyph-name="ccedilla" unicode="&#xe7;" horiz-adv-x="1143" 
d="M530 -14q-95 16 -179 59.5t-146.5 112t-98.5 160t-36 202.5q0 117 42.5 217t117.5 174t177.5 116t223.5 42q43 0 92 -5.5t96.5 -18t91 -32t76.5 -47.5t52.5 -64.5t19.5 -82.5v-143h-225v69q0 26 -18 45.5t-46.5 32t-63 19t-67.5 6.5q-71 0 -128 -23.5t-97 -66t-61 -101.5
t-21 -131q0 -81 26 -142.5t70.5 -103.5t104 -63.5t126.5 -21.5q55 0 105 13.5t92 33t75 41.5t54 39l92 -185q-26 -24 -67 -51.5t-94.5 -51t-117.5 -40t-136 -19.5l-23 -86q35 -2 66.5 -14t55.5 -32.5t38 -49.5t14 -65q0 -50 -22 -85.5t-57 -57.5t-80 -32t-91 -10
q-25 0 -47 2t-39 5q-20 4 -37 8v127q12 -4 27 -8q13 -3 30.5 -5t37.5 -2q16 0 33.5 2.5t32.5 9.5t24.5 19t9.5 31q0 18 -9.5 30t-25.5 19.5t-37.5 10.5t-44.5 3h-41z" />
    <glyph glyph-name="egrave" unicode="&#xe8;" horiz-adv-x="1143" 
d="M72 522q0 121 39 221.5t109 173t167.5 112.5t214.5 40q113 0 199.5 -38.5t145.5 -105.5t89.5 -157.5t30.5 -194.5q0 -11 -1 -26t-2 -29q-2 -16 -3 -33h-723q6 -72 33.5 -126.5t70 -90.5t96.5 -54.5t113 -18.5q64 0 118.5 17t96.5 38q48 24 88 55l101 -184
q-49 -41 -113 -73q-55 -28 -132.5 -50.5t-176.5 -22.5q-130 0 -234 43.5t-176.5 118.5t-111.5 174.5t-39 210.5zM799 639q-2 54 -18 96.5t-43.5 72t-63.5 45t-78 15.5q-50 0 -92 -16.5t-74.5 -46.5t-54.5 -72.5t-31 -93.5h455zM245 1453h280l224 -279h-228z" />
    <glyph glyph-name="eacute" unicode="&#xe9;" horiz-adv-x="1143" 
d="M674 1453h283l-277 -279h-227zM72 522q0 121 39 221.5t109 173t167.5 112.5t214.5 40q113 0 199.5 -38.5t145.5 -105.5t89.5 -157.5t30.5 -194.5q0 -11 -1 -26t-2 -29q-2 -16 -3 -33h-723q6 -72 33.5 -126.5t70 -90.5t96.5 -54.5t113 -18.5q64 0 118.5 17t96.5 38
q48 24 88 55l101 -184q-49 -41 -113 -73q-55 -28 -132.5 -50.5t-176.5 -22.5q-130 0 -234 43.5t-176.5 118.5t-111.5 174.5t-39 210.5zM799 639q-2 54 -18 96.5t-43.5 72t-63.5 45t-78 15.5q-50 0 -92 -16.5t-74.5 -46.5t-54.5 -72.5t-31 -93.5h455z" />
    <glyph glyph-name="ecircumflex" unicode="&#xea;" horiz-adv-x="1143" 
d="M467 1453h266l188 -279h-217l-102 166h-4l-103 -166h-217zM72 522q0 121 39 221.5t109 173t167.5 112.5t214.5 40q113 0 199.5 -38.5t145.5 -105.5t89.5 -157.5t30.5 -194.5q0 -11 -1 -26t-2 -29q-2 -16 -3 -33h-723q6 -72 33.5 -126.5t70 -90.5t96.5 -54.5t113 -18.5
q64 0 118.5 17t96.5 38q48 24 88 55l101 -184q-49 -41 -113 -73q-55 -28 -132.5 -50.5t-176.5 -22.5q-130 0 -234 43.5t-176.5 118.5t-111.5 174.5t-39 210.5zM799 639q-2 54 -18 96.5t-43.5 72t-63.5 45t-78 15.5q-50 0 -92 -16.5t-74.5 -46.5t-54.5 -72.5t-31 -93.5h455z
" />
    <glyph glyph-name="edieresis" unicode="&#xeb;" horiz-adv-x="1143" 
d="M717 1453h213v-238h-213v238zM272 1453h213v-238h-213v238zM72 522q0 121 39 221.5t109 173t167.5 112.5t214.5 40q113 0 199.5 -38.5t145.5 -105.5t89.5 -157.5t30.5 -194.5q0 -11 -1 -26t-2 -29q-2 -16 -3 -33h-723q6 -72 33.5 -126.5t70 -90.5t96.5 -54.5t113 -18.5
q64 0 118.5 17t96.5 38q48 24 88 55l101 -184q-49 -41 -113 -73q-55 -28 -132.5 -50.5t-176.5 -22.5q-130 0 -234 43.5t-176.5 118.5t-111.5 174.5t-39 210.5zM799 639q-2 54 -18 96.5t-43.5 72t-63.5 45t-78 15.5q-50 0 -92 -16.5t-74.5 -46.5t-54.5 -72.5t-31 -93.5h455z
" />
    <glyph glyph-name="igrave" unicode="&#xec;" horiz-adv-x="702" 
d="M94 195h144v655h-152v194h412v-849h143v-195h-547v195zM9 1453h280l224 -279h-228z" />
    <glyph glyph-name="iacute" unicode="&#xed;" horiz-adv-x="702" 
d="M441 1453h283l-277 -279h-227zM94 195h144v655h-152v194h412v-849h143v-195h-547v195z" />
    <glyph glyph-name="icircumflex" unicode="&#xee;" horiz-adv-x="702" 
d="M235 1453h266l188 -279h-217l-102 166h-4l-103 -166h-217zM94 195h144v655h-152v194h412v-849h143v-195h-547v195z" />
    <glyph glyph-name="idieresis" unicode="&#xef;" horiz-adv-x="702" 
d="M94 195h144v655h-152v194h412v-849h143v-195h-547v195zM444 1454h213v-240h-213v240zM57 1454h211v-240h-211v240z" />
    <glyph glyph-name="eth" unicode="&#xf0;" horiz-adv-x="1212" 
d="M76 485q0 91 31.5 175t92.5 149t150.5 104t204.5 39q49 0 88 -9.5t66 -20.5q32 -13 55 -29h4q-28 65 -81 125t-118 100l-370 -157l-13 124l244 107q-29 14 -61.5 27t-65.5 25t-66 21.5t-61 16.5l72 205q119 -26 239.5 -72t221.5 -106l286 125l13 -127l-189 -82
q63 -56 116 -125.5t91.5 -152t60 -177t21.5 -201.5q0 -70 -12.5 -141t-39.5 -137t-69 -123.5t-101.5 -100.5t-136.5 -67.5t-174 -24.5q-120 0 -212.5 43t-156.5 114.5t-97 163t-33 189.5zM338 479q0 -54 14.5 -105t44.5 -90.5t75.5 -64t107.5 -24.5q71 0 121.5 29.5
t82.5 76.5t47 105.5t15 115.5q0 49 -17 91t-48.5 72.5t-77 47.5t-101.5 17q-68 0 -117.5 -23t-82 -61t-48.5 -87t-16 -100z" />
    <glyph glyph-name="ntilde" unicode="&#xf1;" horiz-adv-x="1427" 
d="M94 195h152v610q0 22 -12 33.5t-33 11.5h-117v194h274q70 0 103 -30.5t33 -85.5v-47q0 -9 -1 -17t-2 -14l-2 -14h5q3 8 14.5 28.5t32.5 46.5t51.5 53.5t72.5 51t95 38.5t119 15q84 0 149 -23t109.5 -72t68 -124t23.5 -178v-477h151v-195h-409v618q0 48 -7.5 87t-26.5 67
t-51 43.5t-81 15.5q-71 0 -126.5 -31t-94 -82t-58.5 -116t-20 -133v-274h149v-195h-561v195zM377 1176q0 281 229 281q54 0 90 -20.5t63.5 -45t52 -45t55.5 -20.5q22 0 37 10t24.5 27.5t13.5 40t4 47.5h181q0 -140 -58 -210.5t-174 -70.5q-54 0 -89.5 20.5t-63.5 45t-52 45
t-55 20.5q-21 0 -36 -10t-24.5 -27t-13.5 -40t-4 -48h-180z" />
    <glyph glyph-name="ograve" unicode="&#xf2;" horiz-adv-x="1288" 
d="M70 522q0 120 45 220.5t122.5 173t182 113t223.5 40.5q120 0 225 -40.5t183 -113t123 -173t45 -220.5t-45 -220.5t-123 -173t-182.5 -113t-223.5 -40.5q-120 0 -224.5 40.5t-182.5 113t-123 173t-45 220.5zM334 522q0 -73 24.5 -133t67 -102.5t99 -66t120.5 -23.5
q63 0 119 23.5t98.5 66t67 102.5t24.5 133q0 72 -24.5 132t-67 103t-98.5 67t-119 24q-64 0 -120.5 -24t-99 -67t-67 -103t-24.5 -132zM287 1453h280l224 -279h-228z" />
    <glyph glyph-name="oacute" unicode="&#xf3;" horiz-adv-x="1288" 
d="M719 1453h283l-277 -279h-227zM70 522q0 120 45 220.5t122.5 173t182 113t223.5 40.5q120 0 225 -40.5t183 -113t123 -173t45 -220.5t-45 -220.5t-123 -173t-182.5 -113t-223.5 -40.5q-120 0 -224.5 40.5t-182.5 113t-123 173t-45 220.5zM334 522q0 -73 24.5 -133
t67 -102.5t99 -66t120.5 -23.5q63 0 119 23.5t98.5 66t67 102.5t24.5 133q0 72 -24.5 132t-67 103t-98.5 67t-119 24q-64 0 -120.5 -24t-99 -67t-67 -103t-24.5 -132z" />
    <glyph glyph-name="ocircumflex" unicode="&#xf4;" horiz-adv-x="1288" 
d="M512 1453h266l188 -279h-217l-102 166h-4l-103 -166h-217zM70 522q0 120 45 220.5t122.5 173t182 113t223.5 40.5q120 0 225 -40.5t183 -113t123 -173t45 -220.5t-45 -220.5t-123 -173t-182.5 -113t-223.5 -40.5q-120 0 -224.5 40.5t-182.5 113t-123 173t-45 220.5z
M334 522q0 -73 24.5 -133t67 -102.5t99 -66t120.5 -23.5q63 0 119 23.5t98.5 66t67 102.5t24.5 133q0 72 -24.5 132t-67 103t-98.5 67t-119 24q-64 0 -120.5 -24t-99 -67t-67 -103t-24.5 -132z" />
    <glyph glyph-name="otilde" unicode="&#xf5;" horiz-adv-x="1288" 
d="M70 522q0 120 45 220.5t122.5 173t182 113t223.5 40.5q120 0 225 -40.5t183 -113t123 -173t45 -220.5t-45 -220.5t-123 -173t-182.5 -113t-223.5 -40.5q-120 0 -224.5 40.5t-182.5 113t-123 173t-45 220.5zM334 522q0 -73 24.5 -133t67 -102.5t99 -66t120.5 -23.5
q63 0 119 23.5t98.5 66t67 102.5t24.5 133q0 72 -24.5 132t-67 103t-98.5 67t-119 24q-64 0 -120.5 -24t-99 -67t-67 -103t-24.5 -132zM270 1176q0 281 229 281q54 0 90 -20.5t63.5 -45t52 -45t55.5 -20.5q22 0 37 10t24.5 27.5t13.5 40t4 47.5h181q0 -140 -58 -210.5
t-174 -70.5q-54 0 -89.5 20.5t-63.5 45t-52 45t-55 20.5q-21 0 -36 -10t-24.5 -27t-13.5 -40t-4 -48h-180z" />
    <glyph glyph-name="odieresis" unicode="&#xf6;" horiz-adv-x="1288" 
d="M760 1453h213v-238h-213v238zM315 1453h213v-238h-213v238zM70 522q0 120 45 220.5t122.5 173t182 113t223.5 40.5q120 0 225 -40.5t183 -113t123 -173t45 -220.5t-45 -220.5t-123 -173t-182.5 -113t-223.5 -40.5q-120 0 -224.5 40.5t-182.5 113t-123 173t-45 220.5z
M334 522q0 -73 24.5 -133t67 -102.5t99 -66t120.5 -23.5q63 0 119 23.5t98.5 66t67 102.5t24.5 133q0 72 -24.5 132t-67 103t-98.5 67t-119 24q-64 0 -120.5 -24t-99 -67t-67 -103t-24.5 -132z" />
    <glyph glyph-name="divide" unicode="&#xf7;" horiz-adv-x="1268" 
d="M516 1116h236v-221h-236v221zM100 686h1067v-203h-1067v203zM516 276h236v-221h-236v221z" />
    <glyph glyph-name="oslash" unicode="&#xf8;" horiz-adv-x="1286" 
d="M270 98q-45 37 -82 83t-63 100t-40.5 114.5t-14.5 126.5q0 120 45 220.5t122.5 173t182 113t223.5 40.5q74 0 145.5 -18.5t133.5 -49.5l82 117l102 -71l-82 -111q88 -74 141.5 -180.5t53.5 -233.5q0 -120 -45.5 -220.5t-123.5 -173t-183 -113t-224 -40.5q-71 0 -138 16
t-126 44l-84 -119l-102 74zM784 813q-31 14 -67.5 24.5t-73.5 10.5q-64 0 -120 -24t-98 -67t-66.5 -103t-24.5 -132q0 -66 23.5 -122.5t60.5 -98.5zM516 225q28 -12 61.5 -20t65.5 -8q64 0 120.5 23.5t99 66t67 102.5t24.5 133q0 60 -21.5 113.5t-53.5 93.5z" />
    <glyph glyph-name="ugrave" unicode="&#xf9;" horiz-adv-x="1386" 
d="M207 850h-162v194h422v-626q0 -47 7 -86t25.5 -66.5t50.5 -43t81 -15.5q67 0 121 31.5t91 84t57 119.5t20 138v270h-160v194h420v-806q0 -45 45 -45h100v-193h-258q-69 0 -102 30.5t-33 86.5v39v18.5t1 15.5q0 8 1 15h-4q-3 -9 -14 -29.5t-31.5 -46t-51 -53t-72 -50
t-94.5 -37t-118 -14.5q-78 0 -141.5 22t-108 70t-68.5 123.5t-24 182.5v477zM307 1453h280l224 -279h-228z" />
    <glyph glyph-name="uacute" unicode="&#xfa;" horiz-adv-x="1386" 
d="M739 1453h283l-277 -279h-227zM207 850h-162v194h422v-626q0 -47 7 -86t25.5 -66.5t50.5 -43t81 -15.5q67 0 121 31.5t91 84t57 119.5t20 138v270h-160v194h420v-806q0 -45 45 -45h100v-193h-258q-69 0 -102 30.5t-33 86.5v39v18.5t1 15.5q0 8 1 15h-4q-3 -9 -14 -29.5
t-31.5 -46t-51 -53t-72 -50t-94.5 -37t-118 -14.5q-78 0 -141.5 22t-108 70t-68.5 123.5t-24 182.5v477z" />
    <glyph glyph-name="ucircumflex" unicode="&#xfb;" horiz-adv-x="1386" 
d="M533 1453h266l188 -279h-217l-102 166h-4l-103 -166h-217zM207 850h-162v194h422v-626q0 -47 7 -86t25.5 -66.5t50.5 -43t81 -15.5q67 0 121 31.5t91 84t57 119.5t20 138v270h-160v194h420v-806q0 -45 45 -45h100v-193h-258q-69 0 -102 30.5t-33 86.5v39v18.5t1 15.5
q0 8 1 15h-4q-3 -9 -14 -29.5t-31.5 -46t-51 -53t-72 -50t-94.5 -37t-118 -14.5q-78 0 -141.5 22t-108 70t-68.5 123.5t-24 182.5v477z" />
    <glyph glyph-name="udieresis" unicode="&#xfc;" horiz-adv-x="1386" 
d="M781 1453h213v-238h-213v238zM336 1453h213v-238h-213v238zM207 850h-162v194h422v-626q0 -47 7 -86t25.5 -66.5t50.5 -43t81 -15.5q67 0 121 31.5t91 84t57 119.5t20 138v270h-160v194h420v-806q0 -45 45 -45h100v-193h-258q-69 0 -102 30.5t-33 86.5v39v18.5t1 15.5
q0 8 1 15h-4q-3 -9 -14 -29.5t-31.5 -46t-51 -53t-72 -50t-94.5 -37t-118 -14.5q-78 0 -141.5 22t-108 70t-68.5 123.5t-24 182.5v477z" />
    <glyph glyph-name="yacute" unicode="&#xfd;" horiz-adv-x="1241" 
d="M133 -168q18 -14 43 -25q20 -9 49.5 -16.5t65.5 -7.5q63 0 111 32t73 89l29 65l-359 881h-125v194h515v-194h-123l190 -528q14 -41 19 -74q3 -18 4 -35h6q2 17 6 35q6 33 22 74l189 528h-121v194h494v-194h-119l-385 -985q-30 -78 -73.5 -133.5t-97 -91.5t-115 -53
t-128.5 -17q-57 0 -103.5 11t-80.5 25q-40 16 -70 36zM704 1453h283l-277 -279h-227z" />
    <glyph glyph-name="thorn" unicode="&#xfe;" horiz-adv-x="1272" 
d="M4 1454h418v-453q0 -20 -0.5 -35.5t-0.5 -27.5q-1 -14 -1 -25h4q26 44 68 78q18 15 41.5 29t52.5 25t65 17.5t78 6.5q107 0 193.5 -41.5t148 -114.5t94.5 -173t33 -218t-34.5 -218.5t-96.5 -173.5t-149.5 -114t-192.5 -41q-84 0 -141.5 23t-93.5 51q-42 33 -68 74h-4
q1 -11 2 -25q1 -12 1.5 -28.5t0.5 -36.5v-248h151v-195h-561v195h150v1475h-158v194zM416 520q0 -77 18.5 -137.5t53 -102t83 -63.5t107.5 -22q57 0 104 24.5t81.5 68t53.5 103.5t19 131t-18 130.5t-51 103t-80 68t-105 24.5q-54 0 -102 -17.5t-84.5 -56.5t-58 -101.5
t-21.5 -152.5z" />
    <glyph glyph-name="ydieresis" unicode="&#xff;" horiz-adv-x="1241" 
d="M133 -168q18 -14 43 -25q20 -9 49.5 -16.5t65.5 -7.5q63 0 111 32t73 89l29 65l-359 881h-125v194h515v-194h-123l190 -528q14 -41 19 -74q3 -18 4 -35h6q2 17 6 35q6 33 22 74l189 528h-121v194h494v-194h-119l-385 -985q-30 -78 -73.5 -133.5t-97 -91.5t-115 -53
t-128.5 -17q-57 0 -103.5 11t-80.5 25q-40 16 -70 36zM746 1453h213v-238h-213v238zM301 1453h213v-238h-213v238z" />
    <glyph glyph-name="Amacron" unicode="&#x100;" horiz-adv-x="1493" 
d="M25 201h133l436 1253h305l436 -1253h133v-201h-546v201h143l-90 272h-459l-90 -272h143v-201h-544v201zM913 682l-137 412q-8 26 -13 49.5t-8 40.5q-4 20 -5 37h-7q-2 -17 -6 -37q-3 -17 -7.5 -40.5t-12.5 -49.5l-139 -412h335zM478 1782h536v-178h-536v178z" />
    <glyph glyph-name="amacron" unicode="&#x101;" horiz-adv-x="1157" 
d="M57 293q0 80 32 137t83 96t116 62.5t130 36t125 16.5t102 4h66v35q0 50 -15 84.5t-41 55.5t-61 30.5t-76 9.5q-59 0 -112 -15.5t-94 -34.5q-48 -22 -89 -50l-96 180q49 36 112 64q54 24 130.5 44.5t171.5 20.5q211 0 320.5 -105.5t109.5 -306.5v-417q0 -45 45 -45h94
v-195h-246q-36 0 -61.5 9t-41 24t-23 35t-7.5 43v12q0 25 3 39q1 8 3 14h-4q-28 -57 -74 -101q-20 -19 -45 -37t-57 -32t-70.5 -22.5t-83.5 -8.5q-67 0 -129.5 19.5t-110.5 59.5t-77 99.5t-29 139.5zM319 313q0 -29 10 -55t29.5 -45.5t48 -31t64.5 -11.5q53 0 97.5 26
t76.5 66.5t50 91t18 99.5v34h-43q-26 0 -62 -2t-75 -8t-77 -17.5t-68.5 -31t-49.5 -48t-19 -67.5zM283 1406h536v-178h-536v178z" />
    <glyph glyph-name="Abreve" unicode="&#x102;" horiz-adv-x="1493" 
d="M25 201h133l436 1253h305l436 -1253h133v-201h-546v201h143l-90 272h-459l-90 -272h143v-201h-544v201zM913 682l-137 412q-8 26 -13 49.5t-8 40.5q-4 20 -5 37h-7q-2 -17 -6 -37q-3 -17 -7.5 -40.5t-12.5 -49.5l-139 -412h335zM746 1542q-61 0 -116 17t-97 50t-67 82
t-25 113v25h186v-25q0 -31 10 -53t27 -36.5t38 -21.5t44 -7q21 0 42 7t37.5 21.5t27 37t10.5 54.5v23h188v-25q0 -64 -25 -113t-67.5 -82t-97.5 -50t-115 -17z" />
    <glyph glyph-name="abreve" unicode="&#x103;" horiz-adv-x="1157" 
d="M57 293q0 80 32 137t83 96t116 62.5t130 36t125 16.5t102 4h66v35q0 50 -15 84.5t-41 55.5t-61 30.5t-76 9.5q-59 0 -112 -15.5t-94 -34.5q-48 -22 -89 -50l-96 180q49 36 112 64q54 24 130.5 44.5t171.5 20.5q211 0 320.5 -105.5t109.5 -306.5v-417q0 -45 45 -45h94
v-195h-246q-36 0 -61.5 9t-41 24t-23 35t-7.5 43v12q0 25 3 39q1 8 3 14h-4q-28 -57 -74 -101q-20 -19 -45 -37t-57 -32t-70.5 -22.5t-83.5 -8.5q-67 0 -129.5 19.5t-110.5 59.5t-77 99.5t-29 139.5zM319 313q0 -29 10 -55t29.5 -45.5t48 -31t64.5 -11.5q53 0 97.5 26
t76.5 66.5t50 91t18 99.5v34h-43q-26 0 -62 -2t-75 -8t-77 -17.5t-68.5 -31t-49.5 -48t-19 -67.5zM551 1166q-61 0 -116 17t-97 50t-67 82t-25 113v25h186v-25q0 -31 10 -53t27 -36.5t38 -21.5t44 -7q21 0 42 7t37.5 21.5t27 37t10.5 54.5v23h188v-25q0 -64 -25 -113
t-67.5 -82t-97.5 -50t-115 -17z" />
    <glyph glyph-name="Aogonek" unicode="&#x104;" horiz-adv-x="1493" 
d="M1104 -250q0 37 10.5 72t29 67.5t43.5 60.5t54 50h-319v201h143l-90 272h-459l-90 -272h143v-201h-544v201h133l436 1253h305l436 -1253h133v-201h-10q-18 0 -46 -19.5t-53.5 -49t-44 -65.5t-18.5 -69q0 -23 10.5 -39.5t28 -28t40 -17.5t46.5 -7l-45 -174
q-47 5 -95.5 19.5t-87.5 41t-64 65.5t-25 93zM913 682l-137 412q-8 26 -13 49.5t-8 40.5q-4 20 -5 37h-7q-2 -17 -6 -37q-3 -17 -7.5 -40.5t-12.5 -49.5l-139 -412h335z" />
    <glyph glyph-name="aogonek" unicode="&#x105;" horiz-adv-x="1157" 
d="M745 -250q0 37 10.5 72t29 67.5t44 60.5t54.5 50h-23q-34 0 -58.5 8.5t-40 23.5t-23 35.5t-7.5 43.5v12q0 25 3 39q1 8 3 14h-4q-28 -57 -74 -101q-20 -19 -45 -37t-57 -32t-70.5 -22.5t-83.5 -8.5q-67 0 -129.5 19.5t-110.5 59.5t-77 99.5t-29 139.5t32 137t83 96
t116 62.5t130 36t125 16.5t102 4h66v35q0 50 -15 84.5t-41 55.5t-61 30.5t-76 9.5q-59 0 -112 -15.5t-94 -34.5q-48 -22 -89 -50l-96 180q49 36 112 64q54 24 130.5 44.5t171.5 20.5q211 0 320.5 -105.5t109.5 -306.5v-417q0 -45 45 -45h94v-195h-10q-18 0 -46 -19.5
t-53.5 -49t-44 -65.5t-18.5 -69q0 -23 11 -39.5t28.5 -28t40 -17.5t45.5 -7l-45 -174q-47 5 -95.5 19.5t-88 41t-64.5 65.5t-25 93zM319 313q0 -29 10 -55t29.5 -45.5t48 -31t64.5 -11.5q53 0 97.5 26t76.5 66.5t50 91t18 99.5v34h-43q-26 0 -62 -2t-75 -8t-77 -17.5
t-68.5 -31t-49.5 -48t-19 -67.5z" />
    <glyph glyph-name="Cacute" unicode="&#x106;" horiz-adv-x="1526" 
d="M891 1829h283l-277 -279h-227zM88 733q0 107 26.5 204.5t74.5 180t116 149.5t151 114t180 72.5t202 25.5q44 0 103 -5.5t122 -19t124.5 -35t109.5 -54t78 -76.5t30 -101v-197h-244v113q0 40 -32 68t-79 45t-101 24.5t-99 7.5q-105 0 -194 -35.5t-153.5 -101t-101 -159
t-36.5 -208.5q0 -123 37.5 -222.5t104.5 -170t158.5 -109t198.5 -38.5q22 0 54 2.5t67 9t70 17t62.5 26.5t45 37.5t17.5 50.5v113h243v-199q0 -54 -28.5 -96.5t-76 -74.5t-108 -54t-124 -36t-126 -20t-112.5 -6q-110 0 -209 26.5t-183.5 75.5t-152.5 118t-116 153
t-73.5 181.5t-25.5 203.5z" />
    <glyph glyph-name="cacute" unicode="&#x107;" horiz-adv-x="1143" 
d="M678 1453h283l-277 -279h-227zM70 520q0 117 42.5 217t117.5 174t177.5 116t223.5 42q43 0 92 -5.5t96.5 -18t91 -32t76.5 -47.5t52.5 -64.5t19.5 -82.5v-143h-225v69q0 26 -18 45.5t-46.5 32t-63 19t-67.5 6.5q-71 0 -128 -23.5t-97 -66t-61 -101.5t-21 -131
q0 -81 26 -142.5t70.5 -103.5t104 -63.5t126.5 -21.5q55 0 105 13.5t92 33t75 41.5t54 39l92 -185q-27 -25 -69.5 -53.5t-98.5 -52.5t-122.5 -40t-141.5 -16q-114 0 -218.5 37.5t-183.5 108t-126 171.5t-47 228z" />
    <glyph glyph-name="Ccircumflex" unicode="&#x108;" horiz-adv-x="1526" 
d="M684 1829h266l188 -279h-217l-102 166h-4l-103 -166h-217zM88 733q0 107 26.5 204.5t74.5 180t116 149.5t151 114t180 72.5t202 25.5q44 0 103 -5.5t122 -19t124.5 -35t109.5 -54t78 -76.5t30 -101v-197h-244v113q0 40 -32 68t-79 45t-101 24.5t-99 7.5
q-105 0 -194 -35.5t-153.5 -101t-101 -159t-36.5 -208.5q0 -123 37.5 -222.5t104.5 -170t158.5 -109t198.5 -38.5q22 0 54 2.5t67 9t70 17t62.5 26.5t45 37.5t17.5 50.5v113h243v-199q0 -54 -28.5 -96.5t-76 -74.5t-108 -54t-124 -36t-126 -20t-112.5 -6q-110 0 -209 26.5
t-183.5 75.5t-152.5 118t-116 153t-73.5 181.5t-25.5 203.5z" />
    <glyph glyph-name="ccircumflex" unicode="&#x109;" horiz-adv-x="1143" 
d="M471 1453h266l188 -279h-217l-102 166h-4l-103 -166h-217zM70 520q0 117 42.5 217t117.5 174t177.5 116t223.5 42q43 0 92 -5.5t96.5 -18t91 -32t76.5 -47.5t52.5 -64.5t19.5 -82.5v-143h-225v69q0 26 -18 45.5t-46.5 32t-63 19t-67.5 6.5q-71 0 -128 -23.5t-97 -66
t-61 -101.5t-21 -131q0 -81 26 -142.5t70.5 -103.5t104 -63.5t126.5 -21.5q55 0 105 13.5t92 33t75 41.5t54 39l92 -185q-27 -25 -69.5 -53.5t-98.5 -52.5t-122.5 -40t-141.5 -16q-114 0 -218.5 37.5t-183.5 108t-126 171.5t-47 228z" />
    <glyph glyph-name="Cdotaccent" unicode="&#x10a;" horiz-adv-x="1526" 
d="M88 733q0 107 26.5 204.5t74.5 180t116 149.5t151 114t180 72.5t202 25.5q44 0 103 -5.5t122 -19t124.5 -35t109.5 -54t78 -76.5t30 -101v-197h-244v113q0 40 -32 68t-79 45t-101 24.5t-99 7.5q-105 0 -194 -35.5t-153.5 -101t-101 -159t-36.5 -208.5q0 -123 37.5 -222.5
t104.5 -170t158.5 -109t198.5 -38.5q22 0 54 2.5t67 9t70 17t62.5 26.5t45 37.5t17.5 50.5v113h243v-199q0 -54 -28.5 -96.5t-76 -74.5t-108 -54t-124 -36t-126 -20t-112.5 -6q-110 0 -209 26.5t-183.5 75.5t-152.5 118t-116 153t-73.5 181.5t-25.5 203.5zM702 1829h230
v-227h-230v227z" />
    <glyph glyph-name="cdotaccent" unicode="&#x10b;" horiz-adv-x="1143" 
d="M70 520q0 117 42.5 217t117.5 174t177.5 116t223.5 42q43 0 92 -5.5t96.5 -18t91 -32t76.5 -47.5t52.5 -64.5t19.5 -82.5v-143h-225v69q0 26 -18 45.5t-46.5 32t-63 19t-67.5 6.5q-71 0 -128 -23.5t-97 -66t-61 -101.5t-21 -131q0 -81 26 -142.5t70.5 -103.5t104 -63.5
t126.5 -21.5q55 0 105 13.5t92 33t75 41.5t54 39l92 -185q-27 -25 -69.5 -53.5t-98.5 -52.5t-122.5 -40t-141.5 -16q-114 0 -218.5 37.5t-183.5 108t-126 171.5t-47 228zM491 1453h230v-227h-230v227z" />
    <glyph glyph-name="Ccaron" unicode="&#x10c;" horiz-adv-x="1526" 
d="M495 1829h217l103 -166h4l102 166h217l-188 -279h-266zM88 733q0 107 26.5 204.5t74.5 180t116 149.5t151 114t180 72.5t202 25.5q44 0 103 -5.5t122 -19t124.5 -35t109.5 -54t78 -76.5t30 -101v-197h-244v113q0 40 -32 68t-79 45t-101 24.5t-99 7.5q-105 0 -194 -35.5
t-153.5 -101t-101 -159t-36.5 -208.5q0 -123 37.5 -222.5t104.5 -170t158.5 -109t198.5 -38.5q22 0 54 2.5t67 9t70 17t62.5 26.5t45 37.5t17.5 50.5v113h243v-199q0 -54 -28.5 -96.5t-76 -74.5t-108 -54t-124 -36t-126 -20t-112.5 -6q-110 0 -209 26.5t-183.5 75.5
t-152.5 118t-116 153t-73.5 181.5t-25.5 203.5z" />
    <glyph glyph-name="ccaron" unicode="&#x10d;" horiz-adv-x="1143" 
d="M282 1453h217l103 -166h4l102 166h217l-188 -279h-266zM70 520q0 117 42.5 217t117.5 174t177.5 116t223.5 42q43 0 92 -5.5t96.5 -18t91 -32t76.5 -47.5t52.5 -64.5t19.5 -82.5v-143h-225v69q0 26 -18 45.5t-46.5 32t-63 19t-67.5 6.5q-71 0 -128 -23.5t-97 -66
t-61 -101.5t-21 -131q0 -81 26 -142.5t70.5 -103.5t104 -63.5t126.5 -21.5q55 0 105 13.5t92 33t75 41.5t54 39l92 -185q-27 -25 -69.5 -53.5t-98.5 -52.5t-122.5 -40t-141.5 -16q-114 0 -218.5 37.5t-183.5 108t-126 171.5t-47 228z" />
    <glyph glyph-name="Dcaron" unicode="&#x10e;" horiz-adv-x="1599" 
d="M438 1829h217l103 -166h4l102 166h217l-188 -279h-266zM102 201h174v1050h-174v203h629q88 0 160 -6.5t143 -28.5q106 -32 193 -93.5t148.5 -150t95.5 -201.5t34 -247q0 -129 -31.5 -239t-90 -197.5t-142 -150.5t-186.5 -97q-75 -26 -153 -34.5t-169 -8.5h-631v201z
M721 215q69 0 126 7.5t111 29.5q62 25 112 69t85.5 104.5t54.5 136.5t19 165q0 92 -20 169.5t-57 138t-88.5 104t-115.5 67.5q-56 22 -109 27.5t-118 5.5h-176v-1024h176z" />
    <glyph glyph-name="dcaron" unicode="&#x10f;" horiz-adv-x="1313" 
d="M1462 1454q9 -26 12.5 -53.5t3.5 -52.5q0 -47 -14 -87.5t-39.5 -74.5t-60.5 -59.5t-76 -42.5l-101 86q82 71 82 162q0 29 -6 58.5t-18 63.5h217zM74 522q0 124 34.5 225.5t97.5 172.5t151 110t194 39q83 0 141 -23t93 -51q41 -33 67 -73h4q-1 9 -2 20q-1 10 -1.5 23
t-0.5 30v265h-162v194h420v-1214q0 -45 45 -45h94v-195h-245q-36 0 -61 9t-41.5 24t-24 35t-7.5 43v12q0 22 3 34q2 7 4 13h-5q-26 -55 -73 -98q-20 -18 -46 -35.5t-59.5 -31t-74 -22t-89.5 -8.5q-104 0 -188.5 40t-144 112.5t-91.5 173t-32 221.5zM336 522q0 -74 19 -134.5
t53 -103.5t81.5 -66t104.5 -23q51 0 99 19t84.5 58t58.5 99.5t22 144.5q0 64 -16 123.5t-47.5 105.5t-80 73.5t-112.5 27.5q-55 0 -103.5 -21.5t-84.5 -63t-57 -101.5t-21 -138z" />
    <glyph glyph-name="Dcroat" unicode="&#x110;" horiz-adv-x="1614" 
d="M102 201h174v415h-149v215h149v420h-174v203h674q169 0 306.5 -48.5t234.5 -141.5t150 -228t53 -307t-53 -307.5t-150 -229t-234.5 -143t-306.5 -49.5h-674v201zM762 215q109 0 197.5 33t151 98t96.5 161t34 222q0 124 -34.5 219.5t-97.5 160t-151 97.5t-196 33h-217
v-408h284v-215h-284v-401h217z" />
    <glyph glyph-name="dcroat" unicode="&#x111;" horiz-adv-x="1313" 
d="M74 522q0 124 34.5 225.5t97.5 172.5t151 110t194 39q83 0 141 -23.5t93 -51.5q41 -33 67 -74h4q-1 9 -2 20q-1 10 -1.5 23t-0.5 30v160h-305v154h305v147h258v-147h147v-154h-147v-913q0 -45 45 -45h94v-195h-245q-36 0 -61 9t-41.5 24t-24 35t-7.5 43v12q0 22 3 34
q2 7 4 13h-5q-26 -55 -73 -98q-20 -18 -46 -35.5t-59.5 -31t-74 -22t-89.5 -8.5q-104 0 -188.5 40t-144 112.5t-91.5 173t-32 221.5zM336 522q0 -74 19 -134.5t53 -103.5t81.5 -66t104.5 -23q51 0 99 19t84.5 58t58.5 99.5t22 144.5q0 64 -16 123.5t-47.5 105.5t-80 73.5
t-112.5 27.5q-55 0 -103.5 -21.5t-84.5 -63t-57 -101.5t-21 -138z" />
    <glyph glyph-name="Emacron" unicode="&#x112;" horiz-adv-x="1311" 
d="M102 201h174v1050h-174v203h1080v-375h-230v160h-407v-399h479v-215h-479v-410h438v164h229v-379h-1110v201zM412 1782h536v-178h-536v178z" />
    <glyph glyph-name="emacron" unicode="&#x113;" horiz-adv-x="1143" 
d="M72 522q0 121 39 221.5t109 173t167.5 112.5t214.5 40q113 0 199.5 -38.5t145.5 -105.5t89.5 -157.5t30.5 -194.5q0 -11 -1 -26t-2 -29q-2 -16 -3 -33h-723q6 -72 33.5 -126.5t70 -90.5t96.5 -54.5t113 -18.5q64 0 118.5 17t96.5 38q48 24 88 55l101 -184
q-49 -41 -113 -73q-55 -28 -132.5 -50.5t-176.5 -22.5q-130 0 -234 43.5t-176.5 118.5t-111.5 174.5t-39 210.5zM799 639q-2 54 -18 96.5t-43.5 72t-63.5 45t-78 15.5q-50 0 -92 -16.5t-74.5 -46.5t-54.5 -72.5t-31 -93.5h455zM334 1406h536v-178h-536v178z" />
    <glyph glyph-name="Ebreve" unicode="&#x114;" horiz-adv-x="1311" 
d="M102 201h174v1050h-174v203h1080v-375h-230v160h-407v-399h479v-215h-479v-410h438v164h229v-379h-1110v201zM678 1542q-61 0 -116 17t-97 50t-67 82t-25 113v25h186v-25q0 -31 10 -53t27 -36.5t38 -21.5t44 -7q21 0 42 7t37.5 21.5t27 37t10.5 54.5v23h188v-25
q0 -64 -25 -113t-67.5 -82t-97.5 -50t-115 -17z" />
    <glyph glyph-name="ebreve" unicode="&#x115;" horiz-adv-x="1143" 
d="M72 522q0 121 39 221.5t109 173t167.5 112.5t214.5 40q113 0 199.5 -38.5t145.5 -105.5t89.5 -157.5t30.5 -194.5q0 -11 -1 -26t-2 -29q-2 -16 -3 -33h-723q6 -72 33.5 -126.5t70 -90.5t96.5 -54.5t113 -18.5q64 0 118.5 17t96.5 38q48 24 88 55l101 -184
q-49 -41 -113 -73q-55 -28 -132.5 -50.5t-176.5 -22.5q-130 0 -234 43.5t-176.5 118.5t-111.5 174.5t-39 210.5zM799 639q-2 54 -18 96.5t-43.5 72t-63.5 45t-78 15.5q-50 0 -92 -16.5t-74.5 -46.5t-54.5 -72.5t-31 -93.5h455zM602 1166q-61 0 -116 17t-97 50t-67 82
t-25 113v25h186v-25q0 -31 10 -53t27 -36.5t38 -21.5t44 -7q21 0 42 7t37.5 21.5t27 37t10.5 54.5v23h188v-25q0 -64 -25 -113t-67.5 -82t-97.5 -50t-115 -17z" />
    <glyph glyph-name="Edotaccent" unicode="&#x116;" horiz-adv-x="1311" 
d="M102 201h174v1050h-174v203h1080v-375h-230v160h-407v-399h479v-215h-479v-410h438v164h229v-379h-1110v201zM563 1829h230v-227h-230v227z" />
    <glyph glyph-name="edotaccent" unicode="&#x117;" horiz-adv-x="1143" 
d="M72 522q0 121 39 221.5t109 173t167.5 112.5t214.5 40q113 0 199.5 -38.5t145.5 -105.5t89.5 -157.5t30.5 -194.5q0 -11 -1 -26t-2 -29q-2 -16 -3 -33h-723q6 -72 33.5 -126.5t70 -90.5t96.5 -54.5t113 -18.5q64 0 118.5 17t96.5 38q48 24 88 55l101 -184
q-49 -41 -113 -73q-55 -28 -132.5 -50.5t-176.5 -22.5q-130 0 -234 43.5t-176.5 118.5t-111.5 174.5t-39 210.5zM799 639q-2 54 -18 96.5t-43.5 72t-63.5 45t-78 15.5q-50 0 -92 -16.5t-74.5 -46.5t-54.5 -72.5t-31 -93.5h455zM487 1453h230v-227h-230v227z" />
    <glyph glyph-name="Eogonek" unicode="&#x118;" horiz-adv-x="1311" 
d="M102 201h174v1050h-174v203h1080v-375h-230v160h-407v-399h479v-215h-479v-410h438v164h229v-379h-14q-18 0 -46 -19t-54.5 -48.5t-45 -65.5t-18.5 -70q0 -23 11 -39.5t28.5 -28t40 -17.5t45.5 -7l-45 -174q-47 5 -95.5 19.5t-87.5 41t-64 65.5t-25 93q0 37 10.5 72
t29 67.5t43.5 60.5t54 50h-877v201z" />
    <glyph glyph-name="eogonek" unicode="&#x119;" horiz-adv-x="1143" 
d="M72 522q0 121 39 221.5t109 173t167.5 112.5t214.5 40q113 0 199.5 -38.5t145.5 -105.5t89.5 -157.5t30.5 -194.5q0 -11 -1 -26t-2 -29q-2 -16 -3 -33h-723q6 -72 33.5 -126.5t70 -90.5t96.5 -54.5t113 -18.5q64 0 118.5 17t96.5 38q48 24 88 55l101 -184
q-22 -15 -48 -33q-23 -15 -54.5 -33.5t-69.5 -38.5q-12 -6 -37.5 -24t-52 -46.5t-46.5 -66t-20 -82.5q0 -23 10.5 -39.5t28 -28t40 -17.5t46.5 -7l-45 -174q-47 5 -96 19.5t-88.5 41t-65 65.5t-25.5 93q0 65 32 123.5t81 101.5q-134 -3 -240 40.5t-180 119t-113.5 176
t-39.5 211.5zM799 639q-2 54 -18 96.5t-43.5 72t-63.5 45t-78 15.5q-50 0 -92 -16.5t-74.5 -46.5t-54.5 -72.5t-31 -93.5h455z" />
    <glyph glyph-name="Ecaron" unicode="&#x11a;" horiz-adv-x="1311" 
d="M356 1829h217l103 -166h4l102 166h217l-188 -279h-266zM102 201h174v1050h-174v203h1080v-375h-230v160h-407v-399h479v-215h-479v-410h438v164h229v-379h-1110v201z" />
    <glyph glyph-name="ecaron" unicode="&#x11b;" horiz-adv-x="1143" 
d="M278 1453h217l103 -166h4l102 166h217l-188 -279h-266zM72 522q0 121 39 221.5t109 173t167.5 112.5t214.5 40q113 0 199.5 -38.5t145.5 -105.5t89.5 -157.5t30.5 -194.5q0 -11 -1 -26t-2 -29q-2 -16 -3 -33h-723q6 -72 33.5 -126.5t70 -90.5t96.5 -54.5t113 -18.5
q64 0 118.5 17t96.5 38q48 24 88 55l101 -184q-49 -41 -113 -73q-55 -28 -132.5 -50.5t-176.5 -22.5q-130 0 -234 43.5t-176.5 118.5t-111.5 174.5t-39 210.5zM799 639q-2 54 -18 96.5t-43.5 72t-63.5 45t-78 15.5q-50 0 -92 -16.5t-74.5 -46.5t-54.5 -72.5t-31 -93.5h455z
" />
    <glyph glyph-name="Gcircumflex" unicode="&#x11c;" horiz-adv-x="1573" 
d="M695 1829h266l188 -279h-217l-102 166h-4l-103 -166h-217zM88 733q0 108 25.5 205.5t73 180t115.5 149.5t153.5 113.5t186.5 72t214 25.5q65 0 132.5 -8.5t130.5 -25t119 -41t97.5 -56.5t65.5 -71t24 -85v-201h-243v107q0 37 -27 65.5t-71.5 47.5t-101 28.5t-114.5 9.5
q-116 0 -208.5 -35.5t-157.5 -101.5t-100 -159.5t-35 -209.5q0 -117 35 -215.5t101 -170t161.5 -112t216.5 -40.5q29 0 65 3t73 9.5t72 18t62.5 28t44 39.5t16.5 53v156h-264v201h508v-439q0 -55 -30 -99t-79 -77t-112.5 -56.5t-130.5 -38t-132.5 -21.5t-119.5 -7
q-167 0 -307.5 57.5t-242.5 159t-159 240t-57 301.5z" />
    <glyph glyph-name="gcircumflex" unicode="&#x11d;" horiz-adv-x="1303" 
d="M492 1453h266l188 -279h-217l-102 166h-4l-103 -166h-217zM252 -147q38 -20 84 -35q39 -14 92 -24.5t113 -10.5t113.5 14t94 45t64 81t23.5 122v66q0 9 0.5 18.5t1.5 17.5q1 10 2 19h-4q-47 -69 -116.5 -107.5t-174.5 -38.5q-113 0 -200.5 42.5t-147 114.5t-90.5 168
t-31 204t30 202.5t88.5 165t145 111.5t199.5 41q47 0 95 -9t91.5 -28.5t79.5 -49t57 -71.5h4l-2 10t-1.5 11t-0.5 14q0 42 28.5 70t90.5 28h260v-194h-100q-20 0 -32.5 -10.5t-12.5 -30.5v-746q0 -90 -22 -161t-60.5 -126t-91 -94t-113.5 -64t-128.5 -36.5t-135.5 -11.5
q-99 0 -197.5 25t-175.5 65zM600 240q46 0 89.5 15t77.5 50t54.5 94t20.5 148t-21 147t-56 92.5t-82 48t-99 13.5q-59 0 -105 -20.5t-77.5 -59t-47.5 -92t-16 -119.5q0 -68 17.5 -126t50.5 -100.5t82 -66.5t112 -24z" />
    <glyph glyph-name="Gbreve" unicode="&#x11e;" horiz-adv-x="1573" 
d="M88 733q0 108 25.5 205.5t73 180t115.5 149.5t153.5 113.5t186.5 72t214 25.5q65 0 132.5 -8.5t130.5 -25t119 -41t97.5 -56.5t65.5 -71t24 -85v-201h-243v107q0 37 -27 65.5t-71.5 47.5t-101 28.5t-114.5 9.5q-116 0 -208.5 -35.5t-157.5 -101.5t-100 -159.5t-35 -209.5
q0 -117 35 -215.5t101 -170t161.5 -112t216.5 -40.5q29 0 65 3t73 9.5t72 18t62.5 28t44 39.5t16.5 53v156h-264v201h508v-439q0 -55 -30 -99t-79 -77t-112.5 -56.5t-130.5 -38t-132.5 -21.5t-119.5 -7q-167 0 -307.5 57.5t-242.5 159t-159 240t-57 301.5zM828 1542
q-61 0 -116 17t-97 50t-67 82t-25 113v25h186v-25q0 -31 10 -53t27 -36.5t38 -21.5t44 -7q21 0 42 7t37.5 21.5t27 37t10.5 54.5v23h188v-25q0 -64 -25 -113t-67.5 -82t-97.5 -50t-115 -17z" />
    <glyph glyph-name="gbreve" unicode="&#x11f;" horiz-adv-x="1303" 
d="M252 -147q38 -20 84 -35q39 -14 92 -24.5t113 -10.5t113.5 14t94 45t64 81t23.5 122v66q0 9 0.5 18.5t1.5 17.5q1 10 2 19h-4q-47 -69 -116.5 -107.5t-174.5 -38.5q-113 0 -200.5 42.5t-147 114.5t-90.5 168t-31 204t30 202.5t88.5 165t145 111.5t199.5 41q47 0 95 -9
t91.5 -28.5t79.5 -49t57 -71.5h4l-2 10t-1.5 11t-0.5 14q0 42 28.5 70t90.5 28h260v-194h-100q-20 0 -32.5 -10.5t-12.5 -30.5v-746q0 -90 -22 -161t-60.5 -126t-91 -94t-113.5 -64t-128.5 -36.5t-135.5 -11.5q-99 0 -197.5 25t-175.5 65zM600 240q46 0 89.5 15t77.5 50
t54.5 94t20.5 148t-21 147t-56 92.5t-82 48t-99 13.5q-59 0 -105 -20.5t-77.5 -59t-47.5 -92t-16 -119.5q0 -68 17.5 -126t50.5 -100.5t82 -66.5t112 -24zM627 1166q-61 0 -116 17t-97 50t-67 82t-25 113v25h186v-25q0 -31 10 -53t27 -36.5t38 -21.5t44 -7q21 0 42 7
t37.5 21.5t27 37t10.5 54.5v23h188v-25q0 -64 -25 -113t-67.5 -82t-97.5 -50t-115 -17z" />
    <glyph glyph-name="Gdotaccent" unicode="&#x120;" horiz-adv-x="1573" 
d="M88 733q0 108 25.5 205.5t73 180t115.5 149.5t153.5 113.5t186.5 72t214 25.5q65 0 132.5 -8.5t130.5 -25t119 -41t97.5 -56.5t65.5 -71t24 -85v-201h-243v107q0 37 -27 65.5t-71.5 47.5t-101 28.5t-114.5 9.5q-116 0 -208.5 -35.5t-157.5 -101.5t-100 -159.5t-35 -209.5
q0 -117 35 -215.5t101 -170t161.5 -112t216.5 -40.5q29 0 65 3t73 9.5t72 18t62.5 28t44 39.5t16.5 53v156h-264v201h508v-439q0 -55 -30 -99t-79 -77t-112.5 -56.5t-130.5 -38t-132.5 -21.5t-119.5 -7q-167 0 -307.5 57.5t-242.5 159t-159 240t-57 301.5zM713 1829h230
v-227h-230v227z" />
    <glyph glyph-name="gdotaccent" unicode="&#x121;" horiz-adv-x="1303" 
d="M252 -147q38 -20 84 -35q39 -14 92 -24.5t113 -10.5t113.5 14t94 45t64 81t23.5 122v66q0 9 0.5 18.5t1.5 17.5q1 10 2 19h-4q-47 -69 -116.5 -107.5t-174.5 -38.5q-113 0 -200.5 42.5t-147 114.5t-90.5 168t-31 204t30 202.5t88.5 165t145 111.5t199.5 41q47 0 95 -9
t91.5 -28.5t79.5 -49t57 -71.5h4l-2 10t-1.5 11t-0.5 14q0 42 28.5 70t90.5 28h260v-194h-100q-20 0 -32.5 -10.5t-12.5 -30.5v-746q0 -90 -22 -161t-60.5 -126t-91 -94t-113.5 -64t-128.5 -36.5t-135.5 -11.5q-99 0 -197.5 25t-175.5 65zM600 240q46 0 89.5 15t77.5 50
t54.5 94t20.5 148t-21 147t-56 92.5t-82 48t-99 13.5q-59 0 -105 -20.5t-77.5 -59t-47.5 -92t-16 -119.5q0 -68 17.5 -126t50.5 -100.5t82 -66.5t112 -24zM512 1453h230v-227h-230v227z" />
    <glyph glyph-name="Gcommaaccent" unicode="&#x122;" horiz-adv-x="1573" 
d="M934 -109q9 -26 12.5 -53.5t3.5 -52.5q0 -47 -14 -87.5t-39.5 -74.5t-60.5 -59.5t-76 -42.5l-101 86q82 71 82 162q0 29 -6 58.5t-18 63.5h217zM88 733q0 108 25.5 205.5t73 180t115.5 149.5t153.5 113.5t186.5 72t214 25.5q65 0 132.5 -8.5t130.5 -25t119 -41
t97.5 -56.5t65.5 -71t24 -85v-201h-243v107q0 37 -27 65.5t-71.5 47.5t-101 28.5t-114.5 9.5q-116 0 -208.5 -35.5t-157.5 -101.5t-100 -159.5t-35 -209.5q0 -117 35 -215.5t101 -170t161.5 -112t216.5 -40.5q29 0 65 3t73 9.5t72 18t62.5 28t44 39.5t16.5 53v156h-264v201
h508v-439q0 -55 -30 -99t-79 -77t-112.5 -56.5t-130.5 -38t-132.5 -21.5t-119.5 -7q-167 0 -307.5 57.5t-242.5 159t-159 240t-57 301.5z" />
    <glyph glyph-name="gcommaaccent" unicode="&#x123;" horiz-adv-x="1303" 
d="M493.028 1173.99q-8.99902 25.999 -12.499 53.4971t-3.5 52.4961q0 46.998 13.999 87.4951t39.498 74.4951q25.498 33.998 60.4961 59.4971q34.998 25.498 75.9951 42.4971l100.994 -85.9941q-81.9951 -70.9961 -81.9951 -161.99q0 -28.999 5.99902 -58.4971
q6 -29.498 17.999 -63.4961h-216.986zM252 -147q38 -20 84 -35q39 -14 92 -24.5t113 -10.5t113.5 14t94 45t64 81t23.5 122v66q0 9 0.5 18.5t1.5 17.5q1 10 2 19h-4q-47 -69 -116.5 -107.5t-174.5 -38.5q-113 0 -200.5 42.5t-147 114.5t-90.5 168t-31 204t30 202.5t88.5 165
t145 111.5t199.5 41q47 0 95 -9t91.5 -28.5t79.5 -49t57 -71.5h4l-2 10t-1.5 11t-0.5 14q0 42 28.5 70t90.5 28h260v-194h-100q-20 0 -32.5 -10.5t-12.5 -30.5v-746q0 -90 -22 -161t-60.5 -126t-91 -94t-113.5 -64t-128.5 -36.5t-135.5 -11.5q-99 0 -197.5 25t-175.5 65z
M600 240q46 0 89.5 15t77.5 50t54.5 94t20.5 148t-21 147t-56 92.5t-82 48t-99 13.5q-59 0 -105 -20.5t-77.5 -59t-47.5 -92t-16 -119.5q0 -68 17.5 -126t50.5 -100.5t82 -66.5t112 -24z" />
    <glyph glyph-name="Hcircumflex" unicode="&#x124;" horiz-adv-x="1751" 
d="M744 1829h266l188 -279h-217l-102 166h-4l-103 -166h-217zM102 201h174v1050h-174v203h619v-203h-176v-420h661v420h-176v203h619v-203h-174v-1050h174v-201h-619v201h176v415h-661v-415h176v-201h-619v201z" />
    <glyph glyph-name="hcircumflex" unicode="&#x125;" horiz-adv-x="1391" 
d="M208 1829h266l188 -279h-217l-102 166h-4l-103 -166h-217zM59 195h152v1065h-162v194h422v-508q0 -20 -1 -35.5t-2 -27.5q-2 -14 -3 -25h4q19 37 52.5 75t79 68t103 49t125.5 19q87 0 155 -23t114.5 -72t71 -124t24.5 -178v-477h152v-195h-412v618q0 48 -7 87t-25.5 67
t-50.5 43.5t-81 15.5q-69 0 -124.5 -28t-94 -76t-59.5 -112t-21 -136v-284h150v-195h-562v195z" />
    <glyph glyph-name="Hbar" unicode="&#x126;" horiz-adv-x="1755" 
d="M111 1096h165v155h-174v203h619v-203h-176v-155h661v155h-176v203h619v-203h-174v-155h165v-135h-165v-760h174v-201h-619v201h176v403h-661v-403h176v-201h-619v201h174v760h-165v135zM1206 778v183h-661v-183h661z" />
    <glyph glyph-name="hbar" unicode="&#x127;" horiz-adv-x="1391" 
d="M59 195h152v958h-135v152h135v149h260v-149h313v-152h-313v-207q0 -20 -1 -35.5t-2 -27.5q-2 -14 -3 -25h4q19 37 52.5 75t79 68t103 49t125.5 19q87 0 155 -23t114.5 -72t71 -124t24.5 -178v-477h152v-195h-412v618q0 48 -7 87t-25.5 67t-50.5 43.5t-81 15.5
q-70 0 -125.5 -28.5t-94 -77t-59 -112t-20.5 -132.5v-286h131v-195h-543v195z" />
    <glyph glyph-name="Itilde" unicode="&#x128;" horiz-adv-x="825" 
d="M102 201h174v1050h-174v203h619v-203h-176v-1050h176v-201h-619v201zM40 1552q0 281 229 281q54 0 90 -20.5t63.5 -45t52 -45t55.5 -20.5q22 0 37 10t24.5 27.5t13.5 40t4 47.5h181q0 -140 -58 -210.5t-174 -70.5q-54 0 -89.5 20.5t-63.5 45t-52 45t-55 20.5
q-21 0 -36 -10t-24.5 -27t-13.5 -40t-4 -48h-180z" />
    <glyph glyph-name="itilde" unicode="&#x129;" horiz-adv-x="702" 
d="M94 195h144v655h-152v194h412v-849h143v-195h-547v195zM-7 1176q0 281 229 281q54 0 90 -20.5t63.5 -45t52 -45t55.5 -20.5q22 0 37 10t24.5 27.5t13.5 40t4 47.5h181q0 -140 -58 -210.5t-174 -70.5q-54 0 -89.5 20.5t-63.5 45t-52 45t-55 20.5q-21 0 -36 -10t-24.5 -27
t-13.5 -40t-4 -48h-180z" />
    <glyph glyph-name="Imacron" unicode="&#x12a;" horiz-adv-x="825" 
d="M102 201h174v1050h-174v203h619v-203h-176v-1050h176v-201h-619v201zM147 1782h536v-178h-536v178z" />
    <glyph glyph-name="imacron" unicode="&#x12b;" horiz-adv-x="702" 
d="M94 195h144v655h-152v194h412v-849h143v-195h-547v195zM100 1406h536v-178h-536v178z" />
    <glyph glyph-name="Ibreve" unicode="&#x12c;" horiz-adv-x="825" 
d="M102 201h174v1050h-174v203h619v-203h-176v-1050h176v-201h-619v201zM413 1542q-61 0 -116 17t-97 50t-67 82t-25 113v25h186v-25q0 -31 10 -53t27 -36.5t38 -21.5t44 -7q21 0 42 7t37.5 21.5t27 37t10.5 54.5v23h188v-25q0 -64 -25 -113t-67.5 -82t-97.5 -50t-115 -17z
" />
    <glyph glyph-name="ibreve" unicode="&#x12d;" horiz-adv-x="702" 
d="M94 195h144v655h-152v194h412v-849h143v-195h-547v195zM368 1166q-61 0 -116 17t-97 50t-67 82t-25 113v25h186v-25q0 -31 10 -53t27 -36.5t38 -21.5t44 -7q21 0 42 7t37.5 21.5t27 37t10.5 54.5v23h188v-25q0 -64 -25 -113t-67.5 -82t-97.5 -50t-115 -17z" />
    <glyph glyph-name="Iogonek" unicode="&#x12e;" horiz-adv-x="825" 
d="M102 201h174v1050h-174v203h619v-203h-176v-1050h176v-201h-21q-19 -1 -46.5 -20.5t-52.5 -49t-42.5 -65t-17.5 -68.5q0 -23 10.5 -39.5t27.5 -28t39.5 -17.5t45.5 -7l-46 -174q-46 5 -94 19.5t-87.5 41t-65 65.5t-25.5 93q0 37 11 72t29.5 67.5t43.5 60.5t53 50h-381
v201z" />
    <glyph glyph-name="iogonek" unicode="&#x12f;" horiz-adv-x="717" 
d="M94 195h152v655h-162v194h422v-849h149v-195h-16q-18 0 -46 -19.5t-53.5 -49t-44 -65.5t-18.5 -69q0 -23 11 -39.5t28.5 -28t40 -17.5t45.5 -7l-45 -174q-47 5 -95.5 19.5t-87.5 41t-64 65.5t-25 93q0 37 10.5 72t29 67.5t43.5 60.5t54 50h-328v195zM244 1454h262v-231
h-262v231z" />
    <glyph glyph-name="Idotaccent" unicode="&#x130;" horiz-adv-x="825" 
d="M102 201h174v1050h-174v203h619v-203h-176v-1050h176v-201h-619v201zM298 1829h230v-227h-230v227z" />
    <glyph glyph-name="dotlessi" unicode="&#x131;" horiz-adv-x="702" 
d="M94 195h144v655h-152v194h412v-849h143v-195h-547v195z" />
    <glyph glyph-name="IJ" unicode="&#x132;" horiz-adv-x="1573" 
d="M106 201h173v1050h-175v203h619v-203h-176v-1050h145v-201h-586v201zM803 211q39 -2 85 7t86 37t66.5 79.5t26.5 134.5v782h-188v203h618v-203h-162v-757q0 -105 -22 -183t-59.5 -135t-89 -93.5t-110.5 -56.5t-123.5 -27t-127.5 -3v215z" />
    <glyph glyph-name="ij" unicode="&#x133;" horiz-adv-x="1311" 
d="M244 1454h262v-231h-262v231zM94 195h152v655h-162v194h422v-849h149v-195h-561v195zM889 1454h262v-231h-262v231zM635 -211q6 -1 13 -2q6 -1 14 -1.5t18 -0.5q28 0 64 6.5t68 28t54.5 61t22.5 105.5v864h-162v194h422v-1069q0 -88 -22.5 -151.5t-59 -107.5t-83 -71.5
t-95 -42.5t-94.5 -20.5t-82 -5.5t-57 3q-12 1 -21 3v207z" />
    <glyph glyph-name="Jcircumflex" unicode="&#x134;" horiz-adv-x="1159" 
d="M660 1829h266l188 -279h-217l-102 166h-4l-103 -166h-217zM41 514h258v-78q0 -44 9 -84.5t30 -72t56.5 -50t88.5 -18.5q38 0 70.5 12.5t56.5 39.5t38 69.5t14 103.5v815h-201v203h622v-203h-153v-825q0 -117 -39 -202.5t-102.5 -140.5t-144 -81.5t-163.5 -26.5
q-81 0 -160 24.5t-141.5 78t-100.5 136.5t-38 200v100z" />
    <glyph glyph-name="jcircumflex" unicode="&#x135;" horiz-adv-x="643" 
d="M170 1454h266l189 -280h-217l-103 167h-4l-102 -167h-217zM-33 -211q6 -1 13 -2q6 -1 14 -1.5t18 -0.5q28 0 64 6.5t68 28t54.5 61t22.5 105.5v864h-162v194h422v-1069q0 -88 -22.5 -151.5t-59 -107.5t-83 -71.5t-95 -42.5t-94.5 -20.5t-82 -5.5t-57 3q-12 1 -21 3v207z
" />
    <glyph glyph-name="Kcommaaccent" unicode="&#x136;" horiz-adv-x="1462" 
d="M866 -109q9 -26 12.5 -53.5t3.5 -52.5q0 -47 -14 -87.5t-39.5 -74.5t-60.5 -59.5t-76 -42.5l-101 86q82 71 82 162q0 29 -6 58.5t-18 63.5h217zM102 201h174v1050h-174v203h582v-203h-139v-395h162l276 395h-125v203h533v-203h-131l-351 -481v-4q14 -8 30 -22
q14 -13 31 -34t34 -53l223 -405q14 -26 36.5 -38.5t59.5 -12.5h68v-201h-187q-46 0 -78 6t-54.5 19t-39.5 34t-33 50l-254 479q-17 29 -41 41t-67 12h-92v-440h168v-201h-611v201z" />
    <glyph glyph-name="kcommaaccent" unicode="&#x137;" horiz-adv-x="1243" 
d="M768 -109q9 -26 12.5 -53.5t3.5 -52.5q0 -47 -14 -87.5t-39.5 -74.5t-60.5 -59.5t-76 -42.5l-101 86q82 71 82 162q0 29 -6 58.5t-18 63.5h217zM59 195h152v1065h-162v194h422v-805h137l170 201h-121v194h502v-194h-135l-227 -268v-4q1 0 7.5 -4t17.5 -14t25.5 -27.5
t29.5 -43.5l147 -258q13 -23 31 -29.5t55 -6.5h59v-195h-194q-33 0 -57 3.5t-42.5 13t-34 27t-30.5 46.5l-188 330q-16 28 -39.5 33.5t-51.5 5.5h-61v-264h113v-195h-525v195z" />
    <glyph glyph-name="kgreenlandic" unicode="&#x138;" horiz-adv-x="1276" 
d="M94 195h152v655h-162v194h422v-387h145l160 193h-119v194h496v-194h-129l-225 -268v-4q12 -9 25 -22q11 -11 25.5 -29t30.5 -44l144 -252q13 -23 31 -29.5t55 -6.5h59v-195h-194q-33 0 -56.5 3.5t-42 13t-34 27t-31.5 46.5l-189 330q-15 28 -38.5 33.5t-51.5 5.5h-61
v-264h112v-195h-524v195z" />
    <glyph glyph-name="Lacute" unicode="&#x139;" horiz-adv-x="1257" 
d="M483 1829h283l-277 -279h-227zM104 201h175v1038h-175v215h619v-215h-176v-1024h430v225h229v-440h-1102v201z" />
    <glyph glyph-name="lacute" unicode="&#x13a;" horiz-adv-x="631" 
d="M357 1829h283l-277 -279h-227zM154 1260h-162v194h420v-1106q0 -35 4.5 -62t16.5 -45t32.5 -27t52.5 -9h19.5t15.5 1q8 0 14 1v-209q-13 -2 -28 -3q-26 -3 -66 -3q-62 0 -120 13t-102 50t-70.5 103.5t-26.5 173.5v928z" />
    <glyph glyph-name="Lcommaaccent" unicode="&#x13b;" horiz-adv-x="1257" 
d="M813 -109q9 -26 12.5 -53.5t3.5 -52.5q0 -47 -14 -87.5t-39.5 -74.5t-60.5 -59.5t-76 -42.5l-101 86q82 71 82 162q0 29 -6 58.5t-18 63.5h217zM104 201h175v1038h-175v215h619v-215h-176v-1024h430v225h229v-440h-1102v201z" />
    <glyph glyph-name="lcommaaccent" unicode="&#x13c;" horiz-adv-x="631" 
d="M469 -109q9 -26 12.5 -53.5t3.5 -52.5q0 -47 -14 -87.5t-39.5 -74.5t-60.5 -59.5t-76 -42.5l-101 86q82 71 82 162q0 29 -6 58.5t-18 63.5h217zM154 1260h-162v194h420v-1106q0 -35 4.5 -62t16.5 -45t32.5 -27t52.5 -9h19.5t15.5 1q8 0 14 1v-209q-13 -2 -28 -3
q-26 -3 -66 -3q-62 0 -120 13t-102 50t-70.5 103.5t-26.5 173.5v928z" />
    <glyph glyph-name="Lcaron" unicode="&#x13d;" horiz-adv-x="1257" 
d="M813 -109q9 -26 12.5 -53.5t3.5 -52.5q0 -47 -14 -87.5t-39.5 -74.5t-60.5 -59.5t-76 -42.5l-101 86q82 71 82 162q0 29 -6 58.5t-18 63.5h217zM104 201h175v1038h-175v215h619v-215h-176v-1024h430v225h229v-440h-1102v201z" />
    <glyph glyph-name="lcaron" unicode="&#x13e;" horiz-adv-x="631" 
d="M782 1452q9 -26 12.5 -53.5t3.5 -52.5q0 -47 -14 -87.5t-39.5 -74.5t-60.5 -59.5t-76 -42.5l-101 86q82 71 82 162q0 29 -6 58.5t-18 63.5h217zM154 1260h-162v194h420v-1106q0 -35 4.5 -62t16.5 -45t32.5 -27t52.5 -9h19.5t15.5 1q8 0 14 1v-209q-13 -2 -28 -3
q-26 -3 -66 -3q-62 0 -120 13t-102 50t-70.5 103.5t-26.5 173.5v928z" />
    <glyph glyph-name="Ldot" unicode="&#x13f;" horiz-adv-x="1257" 
d="M104 201h175v1038h-175v215h619v-215h-176v-1024h430v225h229v-440h-1102v201zM766 922h254v-262h-254v262z" />
    <glyph glyph-name="ldot" unicode="&#x140;" horiz-adv-x="858" 
d="M154 1260h-162v194h420v-1106q0 -35 4.5 -62t16.5 -45t32.5 -27t52.5 -9h19.5t15.5 1q8 0 14 1v-209q-13 -2 -28 -3q-26 -3 -66 -3q-62 0 -120 13t-102 50t-70.5 103.5t-26.5 173.5v928zM582 924h254v-262h-254v262z" />
    <glyph glyph-name="Lslash" unicode="&#x141;" horiz-adv-x="1255" 
d="M102 201h174v323l-170 -88v228l170 88v487h-174v215h619v-215h-176v-344l385 203v-228l-385 -202v-453h444v225h215v-440h-1102v201z" />
    <glyph glyph-name="lslash" unicode="&#x142;" horiz-adv-x="631" 
d="M-4 750l158 86v424h-162v194h420v-475l184 102v-227l-184 -102v-400q0 -35 4.5 -62t16.5 -45t32.5 -27t52.5 -9h19.5t15.5 1q8 0 14 1v-213q-13 -2 -28 -3q-26 -3 -66 -3q-62 0 -120 13t-102 50t-70.5 103.5t-26.5 173.5v276l-158 -86v228z" />
    <glyph glyph-name="Nacute" unicode="&#x143;" horiz-adv-x="1735" 
d="M946 1829h283l-277 -279h-227zM102 201h174v1050h-174v203h443l612 -936q11 -18 20 -39t17 -40q9 -22 16 -44h7q-3 24 -5 49q-2 21 -3.5 44.5t-0.5 43.5v719h-180v203h623v-203h-174v-1251h-269l-612 932q-11 18 -20 39.5t-17 40.5q-9 22 -16 43h-8l6 -48
q2 -20 3.5 -43.5t0.5 -43.5v-719h180v-201h-623v201z" />
    <glyph glyph-name="nacute" unicode="&#x144;" horiz-adv-x="1427" 
d="M825 1453h283l-277 -279h-227zM94 195h152v610q0 22 -12 33.5t-33 11.5h-117v194h274q70 0 103 -30.5t33 -85.5v-47q0 -9 -1 -17t-2 -14l-2 -14h5q3 8 14.5 28.5t32.5 46.5t51.5 53.5t72.5 51t95 38.5t119 15q84 0 149 -23t109.5 -72t68 -124t23.5 -178v-477h151v-195
h-409v618q0 48 -7.5 87t-26.5 67t-51 43.5t-81 15.5q-71 0 -126.5 -31t-94 -82t-58.5 -116t-20 -133v-274h149v-195h-561v195z" />
    <glyph glyph-name="Ncommaaccent" unicode="&#x145;" horiz-adv-x="1735" 
d="M981 -109q9 -26 12.5 -53.5t3.5 -52.5q0 -47 -14 -87.5t-39.5 -74.5t-60.5 -59.5t-76 -42.5l-101 86q82 71 82 162q0 29 -6 58.5t-18 63.5h217zM102 201h174v1050h-174v203h443l612 -936q11 -18 20 -39t17 -40q9 -22 16 -44h7q-3 24 -5 49q-2 21 -3.5 44.5t-0.5 43.5v719
h-180v203h623v-203h-174v-1251h-269l-612 932q-11 18 -20 39.5t-17 40.5q-9 22 -16 43h-8l6 -48q2 -20 3.5 -43.5t0.5 -43.5v-719h180v-201h-623v201z" />
    <glyph glyph-name="ncommaaccent" unicode="&#x146;" horiz-adv-x="1427" 
d="M842 -109q9 -26 12.5 -53.5t3.5 -52.5q0 -47 -14 -87.5t-39.5 -74.5t-60.5 -59.5t-76 -42.5l-101 86q82 71 82 162q0 29 -6 58.5t-18 63.5h217zM94 195h152v610q0 22 -12 33.5t-33 11.5h-117v194h274q70 0 103 -30.5t33 -85.5v-47q0 -9 -1 -17t-2 -14l-2 -14h5
q3 8 14.5 28.5t32.5 46.5t51.5 53.5t72.5 51t95 38.5t119 15q84 0 149 -23t109.5 -72t68 -124t23.5 -178v-477h151v-195h-409v618q0 48 -7.5 87t-26.5 67t-51 43.5t-81 15.5q-71 0 -126.5 -31t-94 -82t-58.5 -116t-20 -133v-274h149v-195h-561v195z" />
    <glyph glyph-name="Ncaron" unicode="&#x147;" horiz-adv-x="1735" 
d="M551 1829h217l103 -166h4l102 166h217l-188 -279h-266zM102 201h174v1050h-174v203h443l612 -936q11 -18 20 -39t17 -40q9 -22 16 -44h7q-3 24 -5 49q-2 21 -3.5 44.5t-0.5 43.5v719h-180v203h623v-203h-174v-1251h-269l-612 932q-11 18 -20 39.5t-17 40.5q-9 22 -16 43
h-8l6 -48q2 -20 3.5 -43.5t0.5 -43.5v-719h180v-201h-623v201z" />
    <glyph glyph-name="ncaron" unicode="&#x148;" horiz-adv-x="1427" 
d="M430 1453h217l103 -166h4l102 166h217l-188 -279h-266zM94 195h152v610q0 22 -12 33.5t-33 11.5h-117v194h274q70 0 103 -30.5t33 -85.5v-47q0 -9 -1 -17t-2 -14l-2 -14h5q3 8 14.5 28.5t32.5 46.5t51.5 53.5t72.5 51t95 38.5t119 15q84 0 149 -23t109.5 -72t68 -124
t23.5 -178v-477h151v-195h-409v618q0 48 -7.5 87t-26.5 67t-51 43.5t-81 15.5q-71 0 -126.5 -31t-94 -82t-58.5 -116t-20 -133v-274h149v-195h-561v195z" />
    <glyph glyph-name="napostrophe" unicode="&#x149;" horiz-adv-x="1427" 
d="M288 1499q9 -26 12.5 -53.5t3.5 -52.5q0 -47 -14 -87.5t-39.5 -74.5t-60.5 -59.5t-76 -42.5l-101 86q82 71 82 162q0 29 -6 58.5t-18 63.5h217zM94 195h152v610q0 22 -12 33.5t-33 11.5h-117v194h274q70 0 103 -30.5t33 -85.5v-47q0 -9 -1 -17t-2 -14l-2 -14h5
q3 8 14.5 28.5t32.5 46.5t51.5 53.5t72.5 51t95 38.5t119 15q84 0 149 -23t109.5 -72t68 -124t23.5 -178v-477h151v-195h-409v618q0 48 -7.5 87t-26.5 67t-51 43.5t-81 15.5q-71 0 -126.5 -31t-94 -82t-58.5 -116t-20 -133v-274h149v-195h-561v195z" />
    <glyph glyph-name="Eng" unicode="&#x14a;" horiz-adv-x="1735" 
d="M102 201h174v1050h-174v203h445l610 -936q11 -18 20 -39t17 -40q9 -22 16 -44h7q-3 24 -5 49q-2 21 -3.5 44.5t-0.5 43.5v719h-180v203h623v-203h-174v-1163q0 -154 -41.5 -252.5t-113.5 -155.5t-169.5 -78.5t-208.5 -21.5v227q51 0 99 11t84.5 33.5t59 58t23.5 84.5
l-614 938q-11 18 -20 39.5t-17 40.5q-9 22 -16 43h-8l6 -48q2 -20 3.5 -43.5t0.5 -43.5v-719h180v-201h-623v201z" />
    <glyph glyph-name="eng" unicode="&#x14b;" horiz-adv-x="1370" 
d="M94 195h152v610q0 22 -12 33.5t-33 11.5h-117v194h274q70 0 103 -30.5t33 -85.5v-47q0 -9 -1 -17t-2 -14l-2 -14h5q3 8 14.5 28.5t32.5 46.5t51.5 53.5t72.5 51t95 38.5t119 15q84 0 149 -23t109.5 -72t68 -124t23.5 -178v-707q0 -88 -22.5 -151t-59 -106.5t-83 -70
t-94.5 -41t-94 -19.5t-81 -5q-38 0 -59 3q-12 1 -21 3v213q5 -1 12 -2q6 -1 14 -1.5t19 -0.5q18 0 41 2.5t46.5 10t45.5 20.5t39.5 34.5t28 52.5t10.5 73v638q0 48 -7.5 87t-26.5 67t-51 43.5t-81 15.5q-72 0 -127.5 -31.5t-93.5 -83t-58 -117.5t-20 -134v-270h149v-195
h-561v195z" />
    <glyph glyph-name="Omacron" unicode="&#x14c;" horiz-adv-x="1679" 
d="M574 1782h536v-178h-536v178zM86 737q0 104 26 199.5t74 178t116 149.5t151.5 115t181 74t205.5 26q161 0 299 -57.5t239 -157.5t158 -235.5t57 -291.5q0 -107 -26 -205t-74 -182.5t-115.5 -154t-151 -118.5t-181.5 -75.5t-205 -26.5q-108 0 -205.5 26.5t-181 75.5
t-151.5 118.5t-116 154t-74 182.5t-26 205zM362 737q0 -112 38 -208.5t103 -167t152 -110.5t185 -40t185 40t152 110.5t102.5 167t37.5 208.5q0 108 -37.5 200.5t-102.5 160.5t-152 106.5t-185 38.5t-185 -38.5t-152 -106.5t-103 -160.5t-38 -200.5z" />
    <glyph glyph-name="omacron" unicode="&#x14d;" horiz-adv-x="1288" 
d="M377 1406h536v-178h-536v178zM70 522q0 120 45 220.5t122.5 173t182 113t223.5 40.5q120 0 225 -40.5t183 -113t123 -173t45 -220.5t-45 -220.5t-123 -173t-182.5 -113t-223.5 -40.5q-120 0 -224.5 40.5t-182.5 113t-123 173t-45 220.5zM334 522q0 -73 24.5 -133
t67 -102.5t99 -66t120.5 -23.5q63 0 119 23.5t98.5 66t67 102.5t24.5 133q0 72 -24.5 132t-67 103t-98.5 67t-119 24q-64 0 -120.5 -24t-99 -67t-67 -103t-24.5 -132z" />
    <glyph glyph-name="Obreve" unicode="&#x14e;" horiz-adv-x="1679" 
d="M86 737q0 104 26 199.5t74 178t116 149.5t151.5 115t181 74t205.5 26q161 0 299 -57.5t239 -157.5t158 -235.5t57 -291.5q0 -107 -26 -205t-74 -182.5t-115.5 -154t-151 -118.5t-181.5 -75.5t-205 -26.5q-108 0 -205.5 26.5t-181 75.5t-151.5 118.5t-116 154t-74 182.5
t-26 205zM362 737q0 -112 38 -208.5t103 -167t152 -110.5t185 -40t185 40t152 110.5t102.5 167t37.5 208.5q0 108 -37.5 200.5t-102.5 160.5t-152 106.5t-185 38.5t-185 -38.5t-152 -106.5t-103 -160.5t-38 -200.5zM840 1542q-61 0 -116 17t-97 50t-67 82t-25 113v25h186
v-25q0 -31 10 -53t27 -36.5t38 -21.5t44 -7q21 0 42 7t37.5 21.5t27 37t10.5 54.5v23h188v-25q0 -64 -25 -113t-67.5 -82t-97.5 -50t-115 -17z" />
    <glyph glyph-name="obreve" unicode="&#x14f;" horiz-adv-x="1288" 
d="M70 522q0 120 45 220.5t122.5 173t182 113t223.5 40.5q120 0 225 -40.5t183 -113t123 -173t45 -220.5t-45 -220.5t-123 -173t-182.5 -113t-223.5 -40.5q-120 0 -224.5 40.5t-182.5 113t-123 173t-45 220.5zM334 522q0 -73 24.5 -133t67 -102.5t99 -66t120.5 -23.5
q63 0 119 23.5t98.5 66t67 102.5t24.5 133q0 72 -24.5 132t-67 103t-98.5 67t-119 24q-64 0 -120.5 -24t-99 -67t-67 -103t-24.5 -132zM645 1166q-61 0 -116 17t-97 50t-67 82t-25 113v25h186v-25q0 -31 10 -53t27 -36.5t38 -21.5t44 -7q21 0 42 7t37.5 21.5t27 37
t10.5 54.5v23h188v-25q0 -64 -25 -113t-67.5 -82t-97.5 -50t-115 -17z" />
    <glyph glyph-name="Ohungarumlaut" unicode="&#x150;" horiz-adv-x="1679" 
d="M1045 1829h258l-213 -279h-203zM674 1829h223l-151 -279h-217zM86 737q0 104 26 199.5t74 178t116 149.5t151.5 115t181 74t205.5 26q161 0 299 -57.5t239 -157.5t158 -235.5t57 -291.5q0 -107 -26 -205t-74 -182.5t-115.5 -154t-151 -118.5t-181.5 -75.5t-205 -26.5
q-108 0 -205.5 26.5t-181 75.5t-151.5 118.5t-116 154t-74 182.5t-26 205zM362 737q0 -112 38 -208.5t103 -167t152 -110.5t185 -40t185 40t152 110.5t102.5 167t37.5 208.5q0 108 -37.5 200.5t-102.5 160.5t-152 106.5t-185 38.5t-185 -38.5t-152 -106.5t-103 -160.5
t-38 -200.5z" />
    <glyph glyph-name="ohungarumlaut" unicode="&#x151;" horiz-adv-x="1288" 
d="M848 1453h258l-213 -279h-203zM477 1453h223l-151 -279h-217zM70 522q0 120 45 220.5t122.5 173t182 113t223.5 40.5q120 0 225 -40.5t183 -113t123 -173t45 -220.5t-45 -220.5t-123 -173t-182.5 -113t-223.5 -40.5q-120 0 -224.5 40.5t-182.5 113t-123 173t-45 220.5z
M334 522q0 -73 24.5 -133t67 -102.5t99 -66t120.5 -23.5q63 0 119 23.5t98.5 66t67 102.5t24.5 133q0 72 -24.5 132t-67 103t-98.5 67t-119 24q-64 0 -120.5 -24t-99 -67t-67 -103t-24.5 -132z" />
    <glyph glyph-name="OE" unicode="&#x152;" horiz-adv-x="2021" 
d="M86 729q0 104 26.5 200t76 178t118.5 149t154 114.5t183.5 73.5t205.5 26q43 0 77.5 -2.5t64.5 -5.5t58 -5.5t58 -2.5h784v-375h-215v160h-413v-401h471v-213h-471v-410h444v160h215v-375h-815q-29 0 -57 -3t-58 -6t-65 -6t-78 -3q-108 0 -206 26.5t-183 74.5t-154 116
t-118.5 151t-76 179t-26.5 200zM358 729q0 -111 37 -207t102.5 -167t155.5 -111.5t197 -40.5q32 0 58 2t46 5q23 3 41 7v1018q-18 4 -41 8q-20 3 -46 5.5t-58 2.5q-107 0 -197 -40.5t-155.5 -111t-102.5 -166t-37 -204.5z" />
    <glyph glyph-name="oe" unicode="&#x153;" horiz-adv-x="2021" 
d="M70 520q0 123 44.5 224t121.5 173.5t179.5 112t219.5 39.5q76 0 140 -15.5t117.5 -43.5t96.5 -68t78 -88h4q31 49 71 89t90.5 68t113 43t137.5 15q113 0 199.5 -38.5t145 -105.5t88.5 -157.5t30 -194.5q0 -11 -1 -26.5t-3 -29.5q-2 -17 -3 -34h-718q7 -72 35 -127
t70 -92.5t95 -56.5t111 -19q63 0 117.5 17.5t95.5 39.5q48 26 88 58l100 -178q-49 -42 -112 -75q-54 -29 -132 -52t-176 -23q-81 0 -147.5 16.5t-120 46t-95.5 70.5t-73 89h-4q-35 -49 -78.5 -90t-97.5 -70t-119 -45.5t-143 -16.5q-117 0 -219.5 38.5t-179.5 110t-121.5 172
t-44.5 224.5zM1683 639q-2 51 -18 93t-43 72t-63 47t-78 17q-51 0 -93.5 -16.5t-75 -46.5t-54.5 -72.5t-31 -93.5h456zM332 520q0 -74 24.5 -134t67 -102t99 -64.5t120.5 -22.5q63 0 119 22.5t98.5 65t67 102.5t24.5 135t-25 135t-67.5 102.5t-98.5 65.5t-118 23
q-64 0 -120.5 -23.5t-99 -66t-67 -103t-24.5 -135.5z" />
    <glyph glyph-name="Racute" unicode="&#x154;" horiz-adv-x="1468" 
d="M772 1829h283l-277 -279h-227zM102 201h174v1050h-174v203h641q81 0 148 -6t129 -25q61 -20 110.5 -54.5t84.5 -83t54 -111.5t19 -140q0 -76 -19 -140.5t-55 -115.5t-86.5 -88.5t-113.5 -58.5v-4q13 -7 25 -18q11 -9 23 -23.5t23 -34.5l168 -303q16 -28 39 -37.5t60 -9.5
h47v-201h-170q-45 0 -76.5 5t-54 18t-39 33.5t-33.5 52.5l-207 374q-12 21 -23.5 35t-27 23t-37.5 12.5t-53 3.5h-133v-356h168v-201h-611v201zM786 772q53 0 96.5 15.5t74 46t47 75t16.5 103.5q0 71 -27.5 123.5t-87.5 76.5q-31 14 -72 20.5t-92 6.5h-196v-467h241z" />
    <glyph glyph-name="racute" unicode="&#x155;" horiz-adv-x="911" 
d="M596 1453h283l-277 -279h-227zM94 195h152v610q0 22 -12 33.5t-33 11.5h-117v194h272q70 0 105 -30t35 -96v-62q0 -15 -0.5 -27t-1.5 -20q-1 -10 -2 -18h4q18 56 49.5 105t74 85t95 57t112.5 21q9 0 17.5 -0.5t15.5 -1.5q8 -1 14 -2v-256q-8 1 -18 2q-8 1 -19.5 1.5
t-25.5 0.5q-79 0 -136.5 -32t-95 -85t-55.5 -122t-18 -142v-227h149v-195h-561v195z" />
    <glyph glyph-name="Rcommaaccent" unicode="&#x156;" horiz-adv-x="1468" 
d="M891 -109q9 -26 12.5 -53.5t3.5 -52.5q0 -47 -14 -87.5t-39.5 -74.5t-60.5 -59.5t-76 -42.5l-101 86q82 71 82 162q0 29 -6 58.5t-18 63.5h217zM102 201h174v1050h-174v203h641q81 0 148 -6t129 -25q61 -20 110.5 -54.5t84.5 -83t54 -111.5t19 -140q0 -76 -19 -140.5
t-55 -115.5t-86.5 -88.5t-113.5 -58.5v-4q13 -7 25 -18q11 -9 23 -23.5t23 -34.5l168 -303q16 -28 39 -37.5t60 -9.5h47v-201h-170q-45 0 -76.5 5t-54 18t-39 33.5t-33.5 52.5l-207 374q-12 21 -23.5 35t-27 23t-37.5 12.5t-53 3.5h-133v-356h168v-201h-611v201zM786 772
q53 0 96.5 15.5t74 46t47 75t16.5 103.5q0 71 -27.5 123.5t-87.5 76.5q-31 14 -72 20.5t-92 6.5h-196v-467h241z" />
    <glyph glyph-name="rcommaaccent" unicode="&#x157;" horiz-adv-x="911" 
d="M483 -109q9 -26 12.5 -53.5t3.5 -52.5q0 -47 -14 -87.5t-39.5 -74.5t-60.5 -59.5t-76 -42.5l-101 86q82 71 82 162q0 29 -6 58.5t-18 63.5h217zM94 195h152v610q0 22 -12 33.5t-33 11.5h-117v194h272q70 0 105 -30t35 -96v-62q0 -15 -0.5 -27t-1.5 -20q-1 -10 -2 -18h4
q18 56 49.5 105t74 85t95 57t112.5 21q9 0 17.5 -0.5t15.5 -1.5q8 -1 14 -2v-256q-8 1 -18 2q-8 1 -19.5 1.5t-25.5 0.5q-79 0 -136.5 -32t-95 -85t-55.5 -122t-18 -142v-227h149v-195h-561v195z" />
    <glyph glyph-name="Rcaron" unicode="&#x158;" horiz-adv-x="1468" 
d="M377 1829h217l103 -166h4l102 166h217l-188 -279h-266zM102 201h174v1050h-174v203h641q81 0 148 -6t129 -25q61 -20 110.5 -54.5t84.5 -83t54 -111.5t19 -140q0 -76 -19 -140.5t-55 -115.5t-86.5 -88.5t-113.5 -58.5v-4q13 -7 25 -18q11 -9 23 -23.5t23 -34.5l168 -303
q16 -28 39 -37.5t60 -9.5h47v-201h-170q-45 0 -76.5 5t-54 18t-39 33.5t-33.5 52.5l-207 374q-12 21 -23.5 35t-27 23t-37.5 12.5t-53 3.5h-133v-356h168v-201h-611v201zM786 772q53 0 96.5 15.5t74 46t47 75t16.5 103.5q0 71 -27.5 123.5t-87.5 76.5q-31 14 -72 20.5
t-92 6.5h-196v-467h241z" />
    <glyph glyph-name="rcaron" unicode="&#x159;" horiz-adv-x="911" 
d="M200 1453h217l103 -166h4l102 166h217l-188 -279h-266zM94 195h152v610q0 22 -12 33.5t-33 11.5h-117v194h272q70 0 105 -30t35 -96v-62q0 -15 -0.5 -27t-1.5 -20q-1 -10 -2 -18h4q18 56 49.5 105t74 85t95 57t112.5 21q9 0 17.5 -0.5t15.5 -1.5q8 -1 14 -2v-256
q-8 1 -18 2q-8 1 -19.5 1.5t-25.5 0.5q-79 0 -136.5 -32t-95 -85t-55.5 -122t-18 -142v-227h149v-195h-561v195z" />
    <glyph glyph-name="Sacute" unicode="&#x15a;" horiz-adv-x="1219" 
d="M676 1829h283l-277 -279h-227zM342 469v-109q0 -35 20.5 -63t56 -47t82 -29t97.5 -10q55 0 101.5 11.5t80 34.5t52 56.5t18.5 77.5q0 55 -28.5 93.5t-75.5 67.5t-107 52t-123 47q-73 28 -142 60.5t-123 80.5t-87 115.5t-33 165.5q0 110 41 187t109 126t156 71t181 22
q86 0 169 -16.5t148 -48.5t104.5 -80t39.5 -111v-191h-243v98q0 28 -18.5 49t-49.5 35t-70 21.5t-80 7.5q-44 0 -83.5 -9.5t-69 -29t-47 -49.5t-17.5 -72q0 -50 23.5 -85t63.5 -62t91.5 -48t108.5 -42q81 -29 159 -62.5t139 -82.5t98.5 -119t37.5 -172q0 -111 -43.5 -193
t-116 -136t-167 -80t-197.5 -26q-91 0 -180.5 20.5t-160.5 61.5t-115 102.5t-44 143.5v166h244z" />
    <glyph glyph-name="sacute" unicode="&#x15b;" horiz-adv-x="1010" 
d="M585 1453h283l-277 -279h-227zM72 348h221v-61q0 -27 16.5 -47.5t45 -34t65.5 -20.5t78 -7q78 0 128 27t50 80q0 33 -17.5 55t-49 39.5t-75.5 32.5t-96 34q-57 20 -116 45.5t-106 62.5t-77 89t-30 127q0 83 37.5 140t96.5 92.5t132.5 51t144.5 15.5q57 0 123 -11.5
t122.5 -37.5t94 -67.5t37.5 -100.5v-133h-223v59q0 40 -42.5 63t-111.5 23q-31 0 -58.5 -5.5t-48 -17t-32.5 -29t-12 -42.5q0 -32 18 -55.5t48 -41.5t69.5 -32t83.5 -27q60 -19 122 -43t112 -60t82 -88.5t32 -129.5q0 -79 -35 -138.5t-95 -99.5t-140 -60t-170 -20
q-72 0 -147 15.5t-136.5 47t-101 78.5t-39.5 111v121z" />
    <glyph glyph-name="Scircumflex" unicode="&#x15c;" horiz-adv-x="1219" 
d="M469 1829h266l188 -279h-217l-102 166h-4l-103 -166h-217zM342 469v-109q0 -35 20.5 -63t56 -47t82 -29t97.5 -10q55 0 101.5 11.5t80 34.5t52 56.5t18.5 77.5q0 55 -28.5 93.5t-75.5 67.5t-107 52t-123 47q-73 28 -142 60.5t-123 80.5t-87 115.5t-33 165.5q0 110 41 187
t109 126t156 71t181 22q86 0 169 -16.5t148 -48.5t104.5 -80t39.5 -111v-191h-243v98q0 28 -18.5 49t-49.5 35t-70 21.5t-80 7.5q-44 0 -83.5 -9.5t-69 -29t-47 -49.5t-17.5 -72q0 -50 23.5 -85t63.5 -62t91.5 -48t108.5 -42q81 -29 159 -62.5t139 -82.5t98.5 -119
t37.5 -172q0 -111 -43.5 -193t-116 -136t-167 -80t-197.5 -26q-91 0 -180.5 20.5t-160.5 61.5t-115 102.5t-44 143.5v166h244z" />
    <glyph glyph-name="scircumflex" unicode="&#x15d;" horiz-adv-x="1010" 
d="M379 1453h266l188 -279h-217l-102 166h-4l-103 -166h-217zM72 348h221v-61q0 -27 16.5 -47.5t45 -34t65.5 -20.5t78 -7q78 0 128 27t50 80q0 33 -17.5 55t-49 39.5t-75.5 32.5t-96 34q-57 20 -116 45.5t-106 62.5t-77 89t-30 127q0 83 37.5 140t96.5 92.5t132.5 51
t144.5 15.5q57 0 123 -11.5t122.5 -37.5t94 -67.5t37.5 -100.5v-133h-223v59q0 40 -42.5 63t-111.5 23q-31 0 -58.5 -5.5t-48 -17t-32.5 -29t-12 -42.5q0 -32 18 -55.5t48 -41.5t69.5 -32t83.5 -27q60 -19 122 -43t112 -60t82 -88.5t32 -129.5q0 -79 -35 -138.5t-95 -99.5
t-140 -60t-170 -20q-72 0 -147 15.5t-136.5 47t-101 78.5t-39.5 111v121z" />
    <glyph glyph-name="Scedilla" unicode="&#x15e;" horiz-adv-x="1219" 
d="M530 -20q-83 6 -161 29t-138 63.5t-96.5 98t-36.5 132.5v166h244v-109q0 -35 20.5 -63t56 -47t82 -29t97.5 -10q55 0 101.5 11.5t80 34.5t52 56.5t18.5 77.5q0 55 -28.5 93.5t-75.5 67.5t-107 52t-123 47q-73 28 -142 60.5t-123 80.5t-87 115.5t-33 165.5q0 110 41 187
t109 126t156 71t181 22q86 0 169 -16.5t148 -48.5t104.5 -80t39.5 -111v-191h-243v98q0 28 -18.5 49t-49.5 35t-70 21.5t-80 7.5q-44 0 -83.5 -9.5t-69 -29t-47 -49.5t-17.5 -72q0 -50 23.5 -85t63.5 -62t91.5 -48t108.5 -42q81 -29 159 -62.5t139 -82.5t98.5 -119
t37.5 -172t-37 -179.5t-99.5 -131t-145.5 -83t-176 -36.5l-25 -91q35 -2 66.5 -14t55.5 -32.5t38 -49.5t14 -65q0 -50 -22 -85.5t-57 -57.5t-80 -32t-91 -10q-25 0 -47 2t-39 5q-20 4 -37 8v127q12 -4 27 -8q13 -3 30.5 -5t37.5 -2q17 0 35 2.5t33 9.5t24.5 19t9.5 31
q0 18 -10 30t-26.5 19.5t-38 10.5t-44.5 3h-41z" />
    <glyph glyph-name="scedilla" unicode="&#x15f;" horiz-adv-x="1008" 
d="M434 -20q-66 5 -131 23t-116 49t-83 74.5t-32 100.5v121h221v-61q0 -27 16.5 -47.5t45 -34t65.5 -20.5t78 -7q78 0 128 26.5t50 80.5q0 33 -17.5 55t-49 39.5t-75.5 32.5t-96 34q-57 20 -116 45.5t-106 62.5t-77 89t-30 127q0 83 37.5 140t96.5 92.5t132.5 51t144.5 15.5
q57 0 123 -11.5t122.5 -37.5t94 -67.5t37.5 -100.5v-133h-223v59q0 40 -42.5 63t-111.5 23q-31 0 -58.5 -5.5t-48 -17t-32.5 -29t-12 -42.5q0 -32 18 -55.5t48 -41.5t69.5 -32t83.5 -27q60 -19 122 -43t112 -60t82 -88.5t32 -129.5q0 -71 -28.5 -126t-78 -94.5t-117 -62.5
t-145.5 -30l-24 -91q35 -2 66.5 -14t55.5 -32.5t38 -49.5t14 -65q0 -50 -22 -85.5t-57 -57.5t-80 -32t-91 -10q-25 0 -47 2t-39 5q-20 4 -37 8v127q12 -4 27 -8q13 -3 30 -5t37 -2q17 0 35 2.5t33 9.5t25 19t10 31q0 18 -10 30t-26.5 19.5t-38 10.5t-44.5 3h-41z" />
    <glyph glyph-name="Scaron" unicode="&#x160;" horiz-adv-x="1219" 
d="M280 1829h217l103 -166h4l102 166h217l-188 -279h-266zM342 469v-109q0 -35 20.5 -63t56 -47t82 -29t97.5 -10q55 0 101.5 11.5t80 34.5t52 56.5t18.5 77.5q0 55 -28.5 93.5t-75.5 67.5t-107 52t-123 47q-73 28 -142 60.5t-123 80.5t-87 115.5t-33 165.5q0 110 41 187
t109 126t156 71t181 22q86 0 169 -16.5t148 -48.5t104.5 -80t39.5 -111v-191h-243v98q0 28 -18.5 49t-49.5 35t-70 21.5t-80 7.5q-44 0 -83.5 -9.5t-69 -29t-47 -49.5t-17.5 -72q0 -50 23.5 -85t63.5 -62t91.5 -48t108.5 -42q81 -29 159 -62.5t139 -82.5t98.5 -119
t37.5 -172q0 -111 -43.5 -193t-116 -136t-167 -80t-197.5 -26q-91 0 -180.5 20.5t-160.5 61.5t-115 102.5t-44 143.5v166h244z" />
    <glyph glyph-name="scaron" unicode="&#x161;" horiz-adv-x="1010" 
d="M190 1453h217l103 -166h4l102 166h217l-188 -279h-266zM72 348h221v-61q0 -27 16.5 -47.5t45 -34t65.5 -20.5t78 -7q78 0 128 27t50 80q0 33 -17.5 55t-49 39.5t-75.5 32.5t-96 34q-57 20 -116 45.5t-106 62.5t-77 89t-30 127q0 83 37.5 140t96.5 92.5t132.5 51
t144.5 15.5q57 0 123 -11.5t122.5 -37.5t94 -67.5t37.5 -100.5v-133h-223v59q0 40 -42.5 63t-111.5 23q-31 0 -58.5 -5.5t-48 -17t-32.5 -29t-12 -42.5q0 -32 18 -55.5t48 -41.5t69.5 -32t83.5 -27q60 -19 122 -43t112 -60t82 -88.5t32 -129.5q0 -79 -35 -138.5t-95 -99.5
t-140 -60t-170 -20q-72 0 -147 15.5t-136.5 47t-101 78.5t-39.5 111v121z" />
    <glyph glyph-name="Tcommaaccent" unicode="&#x162;" horiz-adv-x="1384" 
d="M383 201h174v1038h-274v-219h-228v434h1274v-434h-227v219h-277v-1038h176v-201h-247l-31 -111q35 -2 66.5 -14t55.5 -32.5t38 -49.5t14 -65q0 -50 -22 -85.5t-57 -57.5t-80 -32t-91 -10q-25 0 -47 2t-39 5q-20 4 -37 8v127q12 -4 27 -8q13 -3 30 -5t37 -2q17 0 35.5 2.5
t33.5 9.5t24.5 19t9.5 31q0 18 -10 30t-26.5 19.5t-38 10.5t-44.5 3h-41l60 205h-238v201z" />
    <glyph glyph-name="tcommaaccent" unicode="&#x163;" horiz-adv-x="784" 
d="M397 39q-39 18 -74 47t-61 70.5t-41.5 97.5t-15.5 129v467h-162v194h168v285h254v-285h237v-194h-237v-440q0 -67 22 -107t54.5 -61.5t68 -28t62.5 -6.5h19.5t14.5 1q7 0 13 1v-213q-10 -2 -22 -3q-21 -3 -58 -3q-26 0 -56.5 2.5t-62.5 7.5l-31 -111q36 -2 68 -14
t56 -32.5t38.5 -49.5t14.5 -65q0 -50 -22 -85.5t-58 -57.5t-81 -32t-91 -10q-25 0 -47 2t-39 5q-20 4 -37 8v127q12 -4 27 -8q13 -3 30 -5t37 -2q17 0 35 2.5t33 9.5t24.5 19t9.5 31q0 18 -9.5 30t-26 19.5t-37.5 10.5t-45 3h-41z" />
    <glyph glyph-name="Tcaron" unicode="&#x164;" horiz-adv-x="1384" 
d="M370 1829h217l103 -166h4l102 166h217l-188 -279h-266zM383 201h174v1038h-274v-219h-228v434h1274v-434h-227v219h-277v-1038h176v-201h-618v201z" />
    <glyph glyph-name="tcaron" unicode="&#x165;" horiz-adv-x="780" 
d="M856 1499q9 -26 12.5 -53.5t3.5 -52.5q0 -47 -14 -87.5t-39.5 -74.5t-60.5 -59.5t-76 -42.5l-101 86q82 71 82 162q0 29 -6 58.5t-18 63.5h217zM201 850h-160v194h168v285h252v-285h237v-194h-237v-440q0 -67 22 -107t54.5 -61.5t68.5 -28t64 -6.5h19.5t14.5 1q7 0 13 1
v-213q-10 -2 -22 -3q-21 -3 -58 -3t-83.5 5t-95 19.5t-95 41t-82.5 70t-58 107t-22 150.5v467z" />
    <glyph glyph-name="Tbar" unicode="&#x166;" horiz-adv-x="1384" 
d="M203 791h354v448h-274v-219h-228v434h1274v-434h-227v219h-277v-448h357v-179h-357v-411h176v-201h-618v201h174v411h-354v179z" />
    <glyph glyph-name="tbar" unicode="&#x167;" horiz-adv-x="780" 
d="M45 684h156v180h-160v180h168v285h252v-285h237v-180h-237v-180h225v-178h-225v-96q0 -67 22 -107t54.5 -61.5t68.5 -28t64 -6.5h19.5t14.5 1q7 0 13 1v-213q-10 -2 -22 -3q-21 -3 -58 -3t-83.5 5t-95 19.5t-95 41t-82.5 70t-58 107t-22 150.5v123h-156v178z" />
    <glyph glyph-name="Utilde" unicode="&#x168;" horiz-adv-x="1657" 
d="M238 1251h-175v203h619v-203h-176v-704q0 -62 13 -115.5t36 -91.5q38 -62 110 -95.5t164 -33.5q91 0 162 33t111 98q49 82 49 207v702h-174v203h616v-203h-174v-704q0 -106 -27.5 -201t-78.5 -164q-40 -52 -93.5 -91t-115.5 -64.5t-132 -38.5t-143 -13q-77 0 -148 14
t-133 40t-113.5 64.5t-88.5 86.5q-57 71 -82.5 164t-25.5 203v704zM455 1552q0 281 229 281q54 0 90 -20.5t63.5 -45t52 -45t55.5 -20.5q22 0 37 10t24.5 27.5t13.5 40t4 47.5h181q0 -140 -58 -210.5t-174 -70.5q-54 0 -89.5 20.5t-63.5 45t-52 45t-55 20.5q-21 0 -36 -10
t-24.5 -27t-13.5 -40t-4 -48h-180z" />
    <glyph glyph-name="utilde" unicode="&#x169;" horiz-adv-x="1386" 
d="M207 850h-162v194h422v-626q0 -47 7 -86t25.5 -66.5t50.5 -43t81 -15.5q67 0 121 31.5t91 84t57 119.5t20 138v270h-160v194h420v-806q0 -45 45 -45h100v-193h-258q-69 0 -102 30.5t-33 86.5v39v18.5t1 15.5q0 8 1 15h-4q-3 -9 -14 -29.5t-31.5 -46t-51 -53t-72 -50
t-94.5 -37t-118 -14.5q-78 0 -141.5 22t-108 70t-68.5 123.5t-24 182.5v477zM291 1176q0 281 229 281q54 0 90 -20.5t63.5 -45t52 -45t55.5 -20.5q22 0 37 10t24.5 27.5t13.5 40t4 47.5h181q0 -140 -58 -210.5t-174 -70.5q-54 0 -89.5 20.5t-63.5 45t-52 45t-55 20.5
q-21 0 -36 -10t-24.5 -27t-13.5 -40t-4 -48h-180z" />
    <glyph glyph-name="Umacron" unicode="&#x16a;" horiz-adv-x="1657" 
d="M238 1251h-175v203h619v-203h-176v-704q0 -62 13 -115.5t36 -91.5q38 -62 110 -95.5t164 -33.5q91 0 162 33t111 98q49 82 49 207v702h-174v203h616v-203h-174v-704q0 -106 -27.5 -201t-78.5 -164q-40 -52 -93.5 -91t-115.5 -64.5t-132 -38.5t-143 -13q-77 0 -148 14
t-133 40t-113.5 64.5t-88.5 86.5q-57 71 -82.5 164t-25.5 203v704zM562 1782h536v-178h-536v178z" />
    <glyph glyph-name="umacron" unicode="&#x16b;" horiz-adv-x="1386" 
d="M207 850h-162v194h422v-626q0 -47 7 -86t25.5 -66.5t50.5 -43t81 -15.5q67 0 121 31.5t91 84t57 119.5t20 138v270h-160v194h420v-806q0 -45 45 -45h100v-193h-258q-69 0 -102 30.5t-33 86.5v39v18.5t1 15.5q0 8 1 15h-4q-3 -9 -14 -29.5t-31.5 -46t-51 -53t-72 -50
t-94.5 -37t-118 -14.5q-78 0 -141.5 22t-108 70t-68.5 123.5t-24 182.5v477zM398 1406h536v-178h-536v178z" />
    <glyph glyph-name="Ubreve" unicode="&#x16c;" horiz-adv-x="1657" 
d="M238 1251h-175v203h619v-203h-176v-704q0 -62 13 -115.5t36 -91.5q38 -62 110 -95.5t164 -33.5q91 0 162 33t111 98q49 82 49 207v702h-174v203h616v-203h-174v-704q0 -106 -27.5 -201t-78.5 -164q-40 -52 -93.5 -91t-115.5 -64.5t-132 -38.5t-143 -13q-77 0 -148 14
t-133 40t-113.5 64.5t-88.5 86.5q-57 71 -82.5 164t-25.5 203v704zM830 1542q-61 0 -116 17t-97 50t-67 82t-25 113v25h186v-25q0 -31 10 -53t27 -36.5t38 -21.5t44 -7q21 0 42 7t37.5 21.5t27 37t10.5 54.5v23h188v-25q0 -64 -25 -113t-67.5 -82t-97.5 -50t-115 -17z" />
    <glyph glyph-name="ubreve" unicode="&#x16d;" horiz-adv-x="1386" 
d="M207 850h-162v194h422v-626q0 -47 7 -86t25.5 -66.5t50.5 -43t81 -15.5q67 0 121 31.5t91 84t57 119.5t20 138v270h-160v194h420v-806q0 -45 45 -45h100v-193h-258q-69 0 -102 30.5t-33 86.5v39v18.5t1 15.5q0 8 1 15h-4q-3 -9 -14 -29.5t-31.5 -46t-51 -53t-72 -50
t-94.5 -37t-118 -14.5q-78 0 -141.5 22t-108 70t-68.5 123.5t-24 182.5v477zM666 1166q-61 0 -116 17t-97 50t-67 82t-25 113v25h186v-25q0 -31 10 -53t27 -36.5t38 -21.5t44 -7q21 0 42 7t37.5 21.5t27 37t10.5 54.5v23h188v-25q0 -64 -25 -113t-67.5 -82t-97.5 -50
t-115 -17z" />
    <glyph glyph-name="Uring" unicode="&#x16e;" horiz-adv-x="1657" 
d="M830 1520q-39 0 -77 11t-67 33t-47 54.5t-18 75.5t18 75.5t47 55t67 34t77 11.5q40 0 78 -11.5t67.5 -34t47.5 -55t18 -75.5t-18 -75.5t-47.5 -54.5t-67.5 -33t-78 -11zM830 1618q35 0 55.5 21t20.5 55q0 37 -20.5 58.5t-55.5 21.5q-32 0 -53 -21.5t-21 -58.5
q0 -34 20 -55t54 -21zM238 1251h-175v203h619v-203h-176v-704q0 -62 13 -115.5t36 -91.5q38 -62 110 -95.5t164 -33.5q91 0 162 33t111 98q49 82 49 207v702h-174v203h616v-203h-174v-704q0 -106 -27.5 -201t-78.5 -164q-40 -52 -93.5 -91t-115.5 -64.5t-132 -38.5t-143 -13
q-77 0 -148 14t-133 40t-113.5 64.5t-88.5 86.5q-57 71 -82.5 164t-25.5 203v704z" />
    <glyph glyph-name="uring" unicode="&#x16f;" horiz-adv-x="1386" 
d="M666 1144q-39 0 -77 11t-67 33t-47 54.5t-18 75.5t18 75.5t47 55t67 34t77 11.5q40 0 78 -11.5t67.5 -34t47.5 -55t18 -75.5t-18 -75.5t-47.5 -54.5t-67.5 -33t-78 -11zM666 1242q35 0 55.5 21t20.5 55q0 37 -20.5 58.5t-55.5 21.5q-32 0 -53 -21.5t-21 -58.5
q0 -34 20 -55t54 -21zM207 850h-162v194h422v-626q0 -47 7 -86t25.5 -66.5t50.5 -43t81 -15.5q67 0 121 31.5t91 84t57 119.5t20 138v270h-160v194h420v-806q0 -45 45 -45h100v-193h-258q-69 0 -102 30.5t-33 86.5v39v18.5t1 15.5q0 8 1 15h-4q-3 -9 -14 -29.5t-31.5 -46
t-51 -53t-72 -50t-94.5 -37t-118 -14.5q-78 0 -141.5 22t-108 70t-68.5 123.5t-24 182.5v477z" />
    <glyph glyph-name="Uhungarumlaut" unicode="&#x170;" horiz-adv-x="1657" 
d="M238 1251h-175v203h619v-203h-176v-704q0 -62 13 -115.5t36 -91.5q38 -62 110 -95.5t164 -33.5q91 0 162 33t111 98q49 82 49 207v702h-174v203h616v-203h-174v-704q0 -106 -27.5 -201t-78.5 -164q-40 -52 -93.5 -91t-115.5 -64.5t-132 -38.5t-143 -13q-77 0 -148 14
t-133 40t-113.5 64.5t-88.5 86.5q-57 71 -82.5 164t-25.5 203v704zM1032 1829h258l-213 -279h-203zM661 1829h223l-151 -279h-217z" />
    <glyph glyph-name="uhungarumlaut" unicode="&#x171;" horiz-adv-x="1386" 
d="M207 850h-162v194h422v-626q0 -47 7 -86t25.5 -66.5t50.5 -43t81 -15.5q67 0 121 31.5t91 84t57 119.5t20 138v270h-160v194h420v-806q0 -45 45 -45h100v-193h-258q-69 0 -102 30.5t-33 86.5v39v18.5t1 15.5q0 8 1 15h-4q-3 -9 -14 -29.5t-31.5 -46t-51 -53t-72 -50
t-94.5 -37t-118 -14.5q-78 0 -141.5 22t-108 70t-68.5 123.5t-24 182.5v477zM868 1453h258l-213 -279h-203zM497 1453h223l-151 -279h-217z" />
    <glyph glyph-name="Uogonek" unicode="&#x172;" horiz-adv-x="1657" 
d="M238 1251h-175v203h617v-203h-174v-727q0 -74 23 -132.5t65 -98.5t101 -61t132 -21t133 21t102.5 61t65.5 98.5t23 132.5v727h-174v203h616v-203h-174v-729q0 -88 -23.5 -164t-66.5 -139t-103.5 -113.5t-133.5 -87.5q-11 -5 -37 -23t-53 -46.5t-47.5 -67t-20.5 -84.5
q0 -23 10.5 -39.5t28 -28t40 -17.5t46.5 -7l-45 -174q-47 5 -96 19.5t-88.5 41t-65 65.5t-25.5 93q0 65 32.5 123.5t80.5 103.5q-133 -4 -245.5 32t-194.5 107t-128 173.5t-46 232.5v729z" />
    <glyph glyph-name="uogonek" unicode="&#x173;" horiz-adv-x="1386" 
d="M963 -250q0 37 10.5 72t29 67.5t43.5 60.5t54 50h-37q-65 0 -98 31.5t-33 85.5v39v18.5t1 15.5q0 8 1 15h-4q-3 -9 -14.5 -29.5t-32 -46t-50.5 -53t-71 -50t-93 -37t-116 -14.5q-81 0 -145 22t-108.5 70t-68.5 123.5t-24 182.5v477h-162v194h422v-626q0 -47 7 -86
t25.5 -66.5t50 -43t79.5 -15.5q70 0 124.5 32.5t91.5 85t56 119.5t19 136v270h-160v194h420v-806q0 -45 45 -45h100v-193h-8q-18 0 -46 -19.5t-53.5 -49t-44 -65.5t-18.5 -69q0 -23 11 -39.5t28.5 -28t40 -17.5t45.5 -7l-45 -174q-47 5 -95.5 19.5t-87.5 41t-64 65.5t-25 93
z" />
    <glyph glyph-name="Wcircumflex" unicode="&#x174;" horiz-adv-x="2083" 
d="M910 1829h266l188 -279h-217l-102 166h-4l-103 -166h-217zM29 1454h567v-203h-170l188 -829q5 -23 8 -45.5t5 -40.5q3 -21 4 -41h8q1 20 5 41q3 18 7 40.5t11 45.5l272 1032h215l272 -1032q6 -23 10.5 -45.5t7.5 -40.5q4 -21 5 -41h8q0 20 3 41q2 18 5 40.5t8 45.5
l189 829h-170v203h567v-203h-133l-309 -1251h-301l-244 918q-6 22 -10.5 45.5t-7.5 43.5q-4 23 -5 44h-6q-2 -21 -5 -44q-3 -20 -7 -43.5t-10 -45.5l-244 -918h-301l-309 1251h-133v203z" />
    <glyph glyph-name="wcircumflex" unicode="&#x175;" horiz-adv-x="1776" 
d="M758 1453h266l188 -279h-217l-102 166h-4l-103 -166h-217zM25 1044h501v-194h-125l138 -510q5 -20 7.5 -39.5t4.5 -36.5q2 -19 4 -37h6q1 18 4 37q2 17 5 36.5t8 39.5l196 702h230l194 -702q5 -20 7.5 -39.5t4.5 -36.5q2 -19 4 -37h7q0 18 3 37q2 17 5 36.5t8 39.5
l139 510h-127v194h502v-194h-125l-242 -850h-294l-181 612q-5 20 -8.5 40.5t-5.5 37.5q-3 19 -4 37h-6q-1 -18 -4 -37q-2 -17 -6 -37.5t-9 -40.5l-178 -612h-295l-241 850h-127v194z" />
    <glyph glyph-name="Ycircumflex" unicode="&#x176;" horiz-adv-x="1348" 
d="M365 201h176v407l-387 643h-134v203h541v-203h-141l221 -381q15 -25 23 -45q4 -11 8 -20h4q4 9 9 20q5 9 10.5 20.5t13.5 24.5l221 381h-139v203h536v-203h-131l-387 -643v-407h174v-201h-618v201zM545 1829h266l188 -279h-217l-102 166h-4l-103 -166h-217z" />
    <glyph glyph-name="ycircumflex" unicode="&#x177;" horiz-adv-x="1241" 
d="M133 -168q18 -14 43 -25q20 -9 49.5 -16.5t65.5 -7.5q63 0 111 32t73 89l29 65l-359 881h-125v194h515v-194h-123l190 -528q14 -41 19 -74q3 -18 4 -35h6q2 17 6 35q6 33 22 74l189 528h-121v194h494v-194h-119l-385 -985q-30 -78 -73.5 -133.5t-97 -91.5t-115 -53
t-128.5 -17q-57 0 -103.5 11t-80.5 25q-40 16 -70 36zM498 1453h266l188 -279h-217l-102 166h-4l-103 -166h-217z" />
    <glyph glyph-name="Ydieresis" unicode="&#x178;" horiz-adv-x="1348" 
d="M365 201h176v407l-387 643h-134v203h541v-203h-141l221 -381q15 -25 23 -45q4 -11 8 -20h4q4 9 9 20q5 9 10.5 20.5t13.5 24.5l221 381h-139v203h536v-203h-131l-387 -643v-407h174v-201h-618v201zM795 1829h213v-238h-213v238zM350 1829h213v-238h-213v238z" />
    <glyph glyph-name="Zacute" unicode="&#x179;" horiz-adv-x="1317" 
d="M749 1829h283l-277 -279h-227zM106 170l699 1001q11 15 21.5 28t19.5 22l20 20v4q-13 -2 -27 -3q-12 -2 -27 -2.5t-30 -0.5h-438v-219h-227v434h1073v-168l-698 -1003q-11 -16 -22 -28.5t-20 -21.5l-20 -20v-4q13 1 27 3q12 1 26.5 2t30.5 1h469v225h229v-440h-1106v170z
" />
    <glyph glyph-name="zacute" unicode="&#x17a;" horiz-adv-x="1102" 
d="M629 1453h283l-277 -279h-227zM623 791q11 14 22 24.5t19 18.5q10 9 18 16v4q-14 -1 -29 -2q-13 -1 -28.5 -1.5t-30.5 -0.5h-272v-152h-222v346h891v-167l-524 -623q-12 -14 -22.5 -24.5l-18.5 -18.5q-10 -9 -18 -16v-5l28 2q12 1 27 2t31 1h294v149h224v-344h-918v166z
" />
    <glyph glyph-name="Zdotaccent" unicode="&#x17b;" horiz-adv-x="1317" 
d="M106 170l699 1001q11 15 21.5 28t19.5 22l20 20v4q-13 -2 -27 -3q-12 -2 -27 -2.5t-30 -0.5h-438v-219h-227v434h1073v-168l-698 -1003q-11 -16 -22 -28.5t-20 -21.5l-20 -20v-4q13 1 27 3q12 1 26.5 2t30.5 1h469v225h229v-440h-1106v170zM561 1829h230v-227h-230v227z
" />
    <glyph glyph-name="zdotaccent" unicode="&#x17c;" horiz-adv-x="1102" 
d="M623 791q11 14 22 24.5t19 18.5q10 9 18 16v4q-14 -1 -29 -2q-13 -1 -28.5 -1.5t-30.5 -0.5h-272v-152h-222v346h891v-167l-524 -623q-12 -14 -22.5 -24.5l-18.5 -18.5q-10 -9 -18 -16v-5l28 2q12 1 27 2t31 1h294v149h224v-344h-918v166zM442 1453h230v-227h-230v227z
" />
    <glyph glyph-name="Zcaron" unicode="&#x17d;" horiz-adv-x="1317" 
d="M354 1829h217l103 -166h4l102 166h217l-188 -279h-266zM106 170l699 1001q11 15 21.5 28t19.5 22l20 20v4q-13 -2 -27 -3q-12 -2 -27 -2.5t-30 -0.5h-438v-219h-227v434h1073v-168l-698 -1003q-11 -16 -22 -28.5t-20 -21.5l-20 -20v-4q13 1 27 3q12 1 26.5 2t30.5 1h469
v225h229v-440h-1106v170z" />
    <glyph glyph-name="zcaron" unicode="&#x17e;" horiz-adv-x="1102" 
d="M233 1453h217l103 -166h4l102 166h217l-188 -279h-266zM623 791q11 14 22 24.5t19 18.5q10 9 18 16v4q-14 -1 -29 -2q-13 -1 -28.5 -1.5t-30.5 -0.5h-272v-152h-222v346h891v-167l-524 -623q-12 -14 -22.5 -24.5l-18.5 -18.5q-10 -9 -18 -16v-5l28 2q12 1 27 2t31 1h294
v149h224v-344h-918v166z" />
    <glyph glyph-name="longs" unicode="&#x17f;" horiz-adv-x="723" 
d="M94 195h146v655h-156v194h156v48q0 84 21 145.5t55.5 103.5t79 68t91 40.5t91.5 19t81 4.5q24 0 43.5 -1t33.5 -3q17 -2 30 -3v-215q-9 1 -20 3q-10 1 -24.5 2t-33.5 1q-24 0 -57 -4.5t-62.5 -20.5t-50 -48t-20.5 -86v-903h170v-195h-574v195z" />
    <glyph glyph-name="florin" unicode="&#x192;" horiz-adv-x="1079" 
d="M-14 -4l52 -6q22 -2 45 -4t40 -2q28 0 63.5 6t67.5 25.5t56.5 57t29.5 99.5l43 512h-152v207h170l19 199q8 86 35 148.5t66 105.5t86.5 69.5t96 41t95 19.5t84.5 5q26 0 57 -3t57 -6q31 -4 60 -8v-221q-31 3 -61 7q-26 2 -53 4.5t-46 2.5q-28 0 -63.5 -6.5t-67.5 -26.5
t-56.5 -57.5t-29.5 -99.5l-18 -174h223v-207h-242l-45 -537q-8 -86 -35 -148t-65.5 -105t-86 -69.5t-95.5 -40.5t-94.5 -19t-82.5 -5q-26 0 -52.5 2t-49.5 5q-26 4 -51 8v221z" />
    <glyph glyph-name="Scommaaccent" unicode="&#x218;" horiz-adv-x="1219" 
d="M715 -109q9 -26 12.5 -53.5t3.5 -52.5q0 -47 -14 -87.5t-39.5 -74.5t-60.5 -59.5t-76 -42.5l-101 86q82 71 82 162q0 29 -6 58.5t-18 63.5h217zM342 469v-109q0 -35 20.5 -63t56 -47t82 -29t97.5 -10q55 0 101.5 11.5t80 34.5t52 56.5t18.5 77.5q0 55 -28.5 93.5
t-75.5 67.5t-107 52t-123 47q-73 28 -142 60.5t-123 80.5t-87 115.5t-33 165.5q0 110 41 187t109 126t156 71t181 22q86 0 169 -16.5t148 -48.5t104.5 -80t39.5 -111v-191h-243v98q0 28 -18.5 49t-49.5 35t-70 21.5t-80 7.5q-44 0 -83.5 -9.5t-69 -29t-47 -49.5t-17.5 -72
q0 -50 23.5 -85t63.5 -62t91.5 -48t108.5 -42q81 -29 159 -62.5t139 -82.5t98.5 -119t37.5 -172q0 -111 -43.5 -193t-116 -136t-167 -80t-197.5 -26q-91 0 -180.5 20.5t-160.5 61.5t-115 102.5t-44 143.5v166h244z" />
    <glyph glyph-name="scommaaccent" unicode="&#x219;" horiz-adv-x="1010" 
d="M621 -109q9 -26 12.5 -53.5t3.5 -52.5q0 -47 -14 -87.5t-39.5 -74.5t-60.5 -59.5t-76 -42.5l-101 86q82 71 82 162q0 29 -6 58.5t-18 63.5h217zM72 348h221v-61q0 -27 16.5 -47.5t45 -34t65.5 -20.5t78 -7q78 0 128 27t50 80q0 33 -17.5 55t-49 39.5t-75.5 32.5t-96 34
q-57 20 -116 45.5t-106 62.5t-77 89t-30 127q0 83 37.5 140t96.5 92.5t132.5 51t144.5 15.5q57 0 123 -11.5t122.5 -37.5t94 -67.5t37.5 -100.5v-133h-223v59q0 40 -42.5 63t-111.5 23q-31 0 -58.5 -5.5t-48 -17t-32.5 -29t-12 -42.5q0 -32 18 -55.5t48 -41.5t69.5 -32
t83.5 -27q60 -19 122 -43t112 -60t82 -88.5t32 -129.5q0 -79 -35 -138.5t-95 -99.5t-140 -60t-170 -20q-72 0 -147 15.5t-136.5 47t-101 78.5t-39.5 111v121z" />
    <glyph glyph-name="uni021A" unicode="&#x21a;" horiz-adv-x="1384" 
d="M801 -109q9 -26 12.5 -53.5t3.5 -52.5q0 -47 -14 -87.5t-39.5 -74.5t-60.5 -59.5t-76 -42.5l-101 86q82 71 82 162q0 29 -6 58.5t-18 63.5h217zM383 201h174v1038h-274v-219h-228v434h1274v-434h-227v219h-277v-1038h176v-201h-618v201z" />
    <glyph glyph-name="uni021B" unicode="&#x21b;" horiz-adv-x="780" 
d="M578 -109q9 -26 12.5 -53.5t3.5 -52.5q0 -47 -14 -87.5t-39.5 -74.5t-60.5 -59.5t-76 -42.5l-101 86q82 71 82 162q0 29 -6 58.5t-18 63.5h217zM201 850h-160v194h168v285h252v-285h237v-194h-237v-440q0 -67 22 -107t54.5 -61.5t68.5 -28t64 -6.5h19.5t14.5 1q7 0 13 1
v-213q-10 -2 -22 -3q-21 -3 -58 -3t-83.5 5t-95 19.5t-95 41t-82.5 70t-58 107t-22 150.5v467z" />
    <glyph glyph-name="circumflex" unicode="&#x2c6;" horiz-adv-x="1012" 
d="M373 1829h266l188 -279h-217l-102 166h-4l-103 -166h-217z" />
    <glyph glyph-name="caron" unicode="&#x2c7;" horiz-adv-x="1012" 
d="M184 1829h217l103 -166h4l102 166h217l-188 -279h-266z" />
    <glyph glyph-name="breve" unicode="&#x2d8;" horiz-adv-x="1010" 
d="M506 1542q-61 0 -116 17t-97 50t-67 82t-25 113v25h186v-25q0 -31 10 -53t27 -36.5t38 -21.5t44 -7q21 0 42 7t37.5 21.5t27 37t10.5 54.5v23h188v-25q0 -64 -25 -113t-67.5 -82t-97.5 -50t-115 -17z" />
    <glyph glyph-name="dotaccent" unicode="&#x2d9;" horiz-adv-x="1012" 
d="M391 1829h230v-227h-230v227z" />
    <glyph glyph-name="ring" unicode="&#x2da;" horiz-adv-x="1012" 
d="M506 1520q-39 0 -77 11t-67 33t-47 54.5t-18 75.5t18 75.5t47 55t67 34t77 11.5q40 0 78 -11.5t67.5 -34t47.5 -55t18 -75.5t-18 -75.5t-47.5 -54.5t-67.5 -33t-78 -11zM506 1618q35 0 55.5 21t20.5 55q0 37 -20.5 58.5t-55.5 21.5q-32 0 -53 -21.5t-21 -58.5
q0 -34 20 -55t54 -21z" />
    <glyph glyph-name="ogonek" unicode="&#x2db;" horiz-adv-x="1012" 
d="M311 -250q0 50 20 96t51 84.5t66.5 67.5t67.5 45h154v-43q-18 0 -46 -19t-54.5 -48.5t-45 -65.5t-18.5 -70q0 -23 10.5 -39.5t28 -28t40 -17.5t46.5 -7l-45 -174q-47 5 -96 19.5t-88.5 41t-65 65.5t-25.5 93z" />
    <glyph glyph-name="tilde" unicode="&#x2dc;" horiz-adv-x="1010" 
d="M131 1552q0 281 229 281q54 0 90 -20.5t63.5 -45t52 -45t55.5 -20.5q22 0 37 10t24.5 27.5t13.5 40t4 47.5h181q0 -140 -58 -210.5t-174 -70.5q-54 0 -89.5 20.5t-63.5 45t-52 45t-55 20.5q-21 0 -36 -10t-24.5 -27t-13.5 -40t-4 -48h-180z" />
    <glyph glyph-name="hungarumlaut" unicode="&#x2dd;" horiz-adv-x="1010" 
d="M635 1829h258l-213 -279h-203zM264 1829h223l-151 -279h-217z" />
    <glyph glyph-name="uni1E9E" unicode="&#x1e9e;" horiz-adv-x="1507" 
d="M72 201h174v788q0 102 34.5 187.5t97 147t149.5 96t192 34.5h600v-182l-234 -357q-8 -13 -16 -23t-14 -17q-7 -9 -13 -15v-4q85 -19 154.5 -57t119.5 -91.5t77.5 -120.5t27.5 -145q0 -88 -33.5 -171t-101 -147t-169.5 -103t-240 -39q-60 0 -112 7t-87 13v229
q29 -6 72 -12t94 -6q84 0 142.5 19t95 51t53 72.5t16.5 84.5q0 42 -16 80.5t-58 69t-114 51.5t-183 29v159l209 338q8 14 16.5 25t15.5 19q8 9 15 16v4q-9 -1 -20 -2q-9 -1 -21.5 -1.5t-25.5 -0.5h-244q-46 0 -85 -18t-67 -49t-43.5 -73.5t-15.5 -91.5v-995h-442v201z" />
    <glyph glyph-name="uni2009" unicode="&#x2009;" horiz-adv-x="508" 
 />
    <glyph glyph-name="endash" unicode="&#x2013;" horiz-adv-x="1475" 
d="M170 686h1135v-203h-1135v203z" />
    <glyph glyph-name="emdash" unicode="&#x2014;" horiz-adv-x="1884" 
d="M170 686h1544v-203h-1544v203z" />
    <glyph glyph-name="quoteleft" unicode="&#x2018;" horiz-adv-x="492" 
d="M242 1479h184l-104 -475h-240z" />
    <glyph glyph-name="quoteright" unicode="&#x2019;" horiz-adv-x="475" 
d="M195 1479h237l-160 -475h-182z" />
    <glyph glyph-name="quotesinglbase" unicode="&#x201a;" horiz-adv-x="526" 
d="M168 264h233l-159 -475h-176z" />
    <glyph glyph-name="quotedblleft" unicode="&#x201c;" horiz-adv-x="834" 
d="M242 1479h184l-104 -475h-240zM584 1479h184l-104 -475h-240z" />
    <glyph glyph-name="quotedblright" unicode="&#x201d;" horiz-adv-x="819" 
d="M535 1479h241l-160 -475h-184zM195 1479h239l-160 -475h-184z" />
    <glyph glyph-name="quotedblbase" unicode="&#x201e;" horiz-adv-x="860" 
d="M502 264h233l-160 -475h-176zM168 264h233l-159 -475h-176z" />
    <glyph glyph-name="dagger" unicode="&#x2020;" horiz-adv-x="920" 
d="M332 842h-254v202h254v410h250v-410h260v-202h-260v-944h-250v944z" />
    <glyph glyph-name="daggerdbl" unicode="&#x2021;" horiz-adv-x="942" 
d="M90 535h254v307h-254v202h254v410h250v-410h258v-202h-258v-307h258v-201h-258v-436h-250v436h-254v201z" />
    <glyph glyph-name="bullet" unicode="&#x2022;" horiz-adv-x="868" 
d="M434 254q-71 0 -133 27t-108.5 73.5t-73.5 108.5t-27 133q0 70 27 132.5t73.5 109t108.5 73.5t133 27t133 -27t108.5 -73.5t73.5 -109t27 -132.5q0 -71 -27 -133t-73.5 -108.5t-108.5 -73.5t-133 -27z" />
    <glyph glyph-name="ellipsis" unicode="&#x2026;" horiz-adv-x="1706" 
d="M1309 262h254v-262h-254v262zM725 262h254v-262h-254v262zM143 262h252v-262h-252v262z" />
    <glyph glyph-name="perthousand" unicode="&#x2030;" horiz-adv-x="2386" 
d="M428 831q-69 0 -130 25.5t-106 69t-71.5 102.5t-26.5 127q0 66 26.5 125t71.5 103t106 70t130 26q70 0 131 -26t106.5 -70t72 -103t26.5 -125q0 -68 -26.5 -127t-72 -102.5t-106.5 -69t-131 -25.5zM1262 1454h239l-1116 -1454h-238zM428 1020q29 0 54 10.5t43.5 28.5
t29 42.5t10.5 53.5q0 28 -10.5 52.5t-29 43t-43.5 29t-54 10.5t-53.5 -10.5t-42.5 -29t-28.5 -43t-10.5 -52.5q0 -29 10.5 -53.5t28.5 -42.5t42.5 -28.5t53.5 -10.5zM1653 297q0 66 26 125t71.5 103t106.5 70t130 26t130 -26t106.5 -70t72 -103t26.5 -125
q0 -67 -26.5 -125.5t-72 -102t-106.5 -69t-130 -25.5t-130 25.5t-106.5 69t-71.5 102t-26 125.5zM889 297q0 66 26 125t71.5 103t106.5 70t130 26t130 -26t107 -70t72.5 -103t26.5 -125q0 -67 -26.5 -125.5t-72.5 -102t-107 -69t-130 -25.5t-130 25.5t-106.5 69t-71.5 102
t-26 125.5zM1851 299q0 -29 10.5 -53.5t29 -42.5t43 -28.5t53.5 -10.5q28 0 53 10.5t43.5 28.5t29.5 42.5t11 53.5q0 28 -11 52.5t-29.5 43t-43.5 29t-53 10.5q-29 0 -53.5 -10.5t-43 -29t-29 -43t-10.5 -52.5zM1087 299q0 -29 10.5 -53.5t29 -42.5t43 -28.5t53.5 -10.5
q28 0 53 10.5t43.5 28.5t29.5 42.5t11 53.5q0 28 -11 52.5t-29.5 43t-43.5 29t-53 10.5q-29 0 -53.5 -10.5t-43 -29t-29 -43t-10.5 -52.5z" />
    <glyph glyph-name="guilsinglleft" unicode="&#x2039;" horiz-adv-x="762" 
d="M76 578l336 421h247l-335 -421l335 -420h-247z" />
    <glyph glyph-name="guilsinglright" unicode="&#x203a;" horiz-adv-x="762" 
d="M438 578l-336 421h248l336 -421l-336 -420h-248z" />
    <glyph glyph-name="fraction" unicode="&#x2044;" horiz-adv-x="305" 
d="M403 1454h189l-688 -1454h-189z" />
    <glyph glyph-name="uni2070" unicode="&#x2070;" horiz-adv-x="823" 
d="M412 846q-95 0 -158.5 36.5t-102 100t-55 149.5t-16.5 185q0 98 16.5 183.5t55 149t102 100t158.5 36.5q94 0 158 -36.5t102 -100t54.5 -149t16.5 -183.5q0 -99 -16.5 -185t-54.5 -149.5t-102 -100t-158 -36.5zM412 1024q40 0 66 22.5t41.5 62.5t21.5 93t6 115
q0 60 -6 112.5t-21.5 92t-41.5 62t-66 22.5q-39 0 -65.5 -22.5t-42 -62t-22 -92t-6.5 -112.5q0 -62 6.5 -115t22 -93t42 -62.5t65.5 -22.5z" />
    <glyph glyph-name="uni2074" unicode="&#x2074;" horiz-adv-x="825" 
d="M457 1075h-416v125l387 565h221v-542h119v-148h-119v-209h-192v209zM457 1223v266q0 16 1.5 33t3.5 31q2 17 5 32h-8q-6 -14 -12 -29q-5 -13 -12.5 -28t-16.5 -29l-195 -272v-4h234z" />
    <glyph glyph-name="uni2075" unicode="&#x2075;" horiz-adv-x="776" 
d="M362 846q-73 0 -130 19t-97 42q-47 27 -82 62l101 133q25 -24 55 -42q26 -16 60.5 -29t76.5 -13q33 0 62.5 10t52 29t36 45.5t13.5 58.5q0 30 -12 55.5t-34 44t-53 29t-69 10.5q-30 0 -55.5 -5.5t-44.5 -12.5q-22 -8 -39 -18l-105 39l45 462h519v-256h-156v105h-205
l-8 -135q-2 -13 -3.5 -22.5t-2.5 -17.5q-2 -9 -2 -16l4 -2q12 5 28 9q14 4 31.5 7t40.5 3q72 0 130.5 -22t100 -60.5t64.5 -90t23 -110.5t-23.5 -115t-67.5 -99.5t-108 -70t-146 -26.5z" />
    <glyph glyph-name="uni2076" unicode="&#x2076;" horiz-adv-x="795" 
d="M424 846q-72 0 -136 27.5t-112 81t-76 131.5t-28 180q0 60 11.5 122t34 120t57 108.5t80.5 88t104 59.5t128 22q44 0 80.5 -7.5t63.5 -16.5q32 -11 57 -23l-55 -166q-21 9 -44 16q-20 6 -44 11.5t-47 5.5q-40 0 -73.5 -15t-60 -41.5t-44.5 -63t-27 -79.5h4q25 20 60 31.5
t69 11.5q72 0 129 -23t96.5 -62.5t60.5 -93.5t21 -116q0 -65 -22 -121t-62 -98t-97.5 -66t-127.5 -24zM424 1024q28 0 49.5 10.5t36 29t22 42.5t7.5 51q0 30 -9.5 57.5t-27.5 48.5t-45 33.5t-62 12.5q-25 0 -47.5 -7t-40 -18t-27.5 -26t-10 -31q0 -39 12 -76t33 -65t49 -45
t60 -17z" />
    <glyph glyph-name="uni2077" unicode="&#x2077;" horiz-adv-x="748" 
d="M473 1567q5 10 10.5 18t10.5 15l12 14v6q-9 -2 -19 -3q-17 -3 -38 -3h-230v-105h-158v256h652v-133l-400 -766h-202z" />
    <glyph glyph-name="uni2078" unicode="&#x2078;" horiz-adv-x="811" 
d="M408 846q-63 0 -123.5 17.5t-108.5 52.5t-77 87.5t-29 122.5q0 43 15.5 79.5t37.5 65.5t46 50t40 33q-43 32 -70.5 75.5t-27.5 106.5q0 62 25.5 109t67 78.5t95.5 47t111 15.5t111.5 -16t97.5 -47.5t69.5 -79t26.5 -109.5q0 -39 -14 -75.5t-32.5 -66t-36 -50.5t-24.5 -29
q27 -16 50 -35.5t40.5 -44.5t27 -55.5t9.5 -67.5q0 -62 -27 -110.5t-72.5 -83t-104.5 -52.5t-123 -18zM473 1376q7 8 17 22t19.5 32.5t16 42t6.5 49.5q0 24 -11 42t-28 30t-39 18t-44 6t-42.5 -5t-36 -16t-25 -28t-9.5 -41q0 -29 15 -50.5t39.5 -39t56 -32.5t65.5 -30z
M406 1012q24 0 48.5 7.5t43.5 21.5t31 34t12 45q0 30 -18 52t-47.5 40.5t-66.5 35t-75 34.5q-11 -10 -24 -24.5t-24.5 -33t-19.5 -40.5t-8 -47q0 -30 12.5 -53.5t33.5 -39t47.5 -24t54.5 -8.5z" />
    <glyph glyph-name="uni2079" unicode="&#x2079;" horiz-adv-x="795" 
d="M307 846q-45 0 -81 7t-63 16q-32 11 -57 24l56 166q20 -10 43 -17q20 -6 45 -11t51 -5q37 0 69.5 14.5t59 41t45 62.5t27.5 79h-4q-28 -20 -61.5 -31.5t-74.5 -11.5q-68 0 -123.5 23t-95 63.5t-61 95t-21.5 117.5q0 64 22 120t62.5 97.5t97.5 65.5t126 24q72 0 136.5 -28
t112.5 -81.5t76.5 -131t28.5 -177.5q0 -93 -25.5 -186t-77 -168t-130 -121.5t-183.5 -46.5zM406 1321q51 0 84.5 26.5t33.5 75.5q0 29 -11.5 61.5t-32.5 59.5t-50 44.5t-63 17.5q-26 0 -46.5 -10.5t-34.5 -28.5t-22 -42.5t-8 -51.5q0 -30 9 -57.5t27.5 -48.5t46.5 -33.5
t67 -12.5z" />
    <glyph glyph-name="uni2080" unicode="&#x2080;" horiz-adv-x="823" 
d="M412 -341q-95 0 -158.5 36.5t-102 100t-55 149.5t-16.5 185q0 98 16.5 183.5t55 149t102 100t158.5 36.5q94 0 158 -36.5t102 -100t54.5 -149t16.5 -183.5q0 -99 -16.5 -185t-54.5 -149.5t-102 -100t-158 -36.5zM412 -163q40 0 66 22.5t41.5 62.5t21.5 93t6 115
q0 60 -6 112.5t-21.5 92t-41.5 62t-66 22.5q-39 0 -65.5 -22.5t-42 -62t-22 -92t-6.5 -112.5q0 -62 6.5 -115t22 -93t42 -62.5t65.5 -22.5z" />
    <glyph glyph-name="uni2081" unicode="&#x2081;" horiz-adv-x="725" 
d="M80 -165h207v430q0 30 3 47q1 10 3 17h-4l-8 -12q-8 -11 -25 -25l-84 -80l-115 125l254 241h170v-743h207v-156h-608v156z" />
    <glyph glyph-name="uni2082" unicode="&#x2082;" horiz-adv-x="788" 
d="M66 -231q0 63 18.5 112.5t48.5 89t69 71t79 58.5t79 51t69 48.5t48.5 52t18.5 60.5q0 24 -10 43.5t-27 34t-39.5 22t-46.5 7.5q-37 0 -66.5 -15t-51.5 -33q-26 -21 -46 -47l-129 113q32 45 77 81q38 30 96 55.5t136 25.5q66 0 121.5 -19t96 -54.5t63 -85t22.5 -109.5
q0 -56 -17.5 -99.5t-46.5 -78.5t-66 -62.5t-76.5 -52t-77.5 -46.5t-68.5 -46t-50.5 -51t-23 -60h285v98h156v-254h-633q-2 16 -4 33q-2 14 -3 29.5t-1 27.5z" />
    <glyph glyph-name="uni2083" unicode="&#x2083;" horiz-adv-x="784" 
d="M88 578h598v-125l-209 -241q49 -9 91 -29t73 -51t48.5 -72.5t17.5 -95.5q0 -59 -23 -114t-65.5 -97.5t-104 -68t-139.5 -25.5q-80 0 -138 21t-97 47q-46 30 -77 69l101 131q21 -27 51 -48q26 -18 63 -33t87 -15q30 0 56 9.5t46 26.5t31.5 40.5t11.5 52.5t-13.5 51
t-35.5 36.5t-50.5 22t-58.5 7.5h-65l-39 92l176 215q8 9 16.5 16.5t15.5 13.5q8 7 15 13v8q-10 -2 -21 -4q-9 -2 -20.5 -3t-23.5 -1h-160v-105h-158v256z" />
    <glyph glyph-name="uni2084" unicode="&#x2084;" horiz-adv-x="825" 
d="M457 -112h-416v125l387 565h221v-542h119v-148h-119v-209h-192v209zM457 36v266q0 16 1.5 33t3.5 31q2 17 5 32h-8q-6 -14 -12 -29q-5 -13 -12.5 -28t-16.5 -29l-195 -272v-4h234z" />
    <glyph glyph-name="uni2085" unicode="&#x2085;" horiz-adv-x="776" 
d="M362 -341q-73 0 -130 19t-97 42q-47 27 -82 62l101 133q25 -24 55 -42q26 -16 60.5 -29t76.5 -13q33 0 62.5 10t52 29t36 45.5t13.5 58.5q0 30 -12 55.5t-34 44t-53 29t-69 10.5q-30 0 -55.5 -5.5t-44.5 -12.5q-22 -8 -39 -18l-105 39l45 462h519v-256h-156v105h-205
l-8 -135q-2 -13 -3.5 -22.5t-2.5 -17.5q-2 -9 -2 -16l4 -2q12 5 28 9q14 4 31.5 7t40.5 3q72 0 130.5 -22t100 -60.5t64.5 -90t23 -110.5t-23.5 -115t-67.5 -99.5t-108 -70t-146 -26.5z" />
    <glyph glyph-name="uni2086" unicode="&#x2086;" horiz-adv-x="795" 
d="M424 -341q-72 0 -136 27.5t-112 81t-76 131.5t-28 180q0 60 11.5 122t34 120t57 108.5t80.5 88t104 59.5t128 22q44 0 80.5 -7.5t63.5 -16.5q32 -11 57 -23l-55 -166q-21 9 -44 16q-20 6 -44 11.5t-47 5.5q-40 0 -73.5 -15t-60 -41.5t-44.5 -63t-27 -79.5h4
q25 20 60 31.5t69 11.5q72 0 129 -23t96.5 -62.5t60.5 -93.5t21 -116q0 -65 -22 -121t-62 -98t-97.5 -66t-127.5 -24zM424 -163q28 0 49.5 10.5t36 29t22 42.5t7.5 51q0 30 -9.5 57.5t-27.5 48.5t-45 33.5t-62 12.5q-25 0 -47.5 -7t-40 -18t-27.5 -26t-10 -31q0 -39 12 -76
t33 -65t49 -45t60 -17z" />
    <glyph glyph-name="uni2087" unicode="&#x2087;" horiz-adv-x="748" 
d="M473 380q5 10 10.5 18t10.5 15l12 14v6q-9 -2 -19 -3q-17 -3 -38 -3h-230v-105h-158v256h652v-133l-400 -766h-202z" />
    <glyph glyph-name="uni2088" unicode="&#x2088;" horiz-adv-x="811" 
d="M408 -341q-63 0 -123.5 17.5t-108.5 52.5t-77 87.5t-29 122.5q0 43 15.5 79.5t37.5 65.5t46 50t40 33q-43 32 -70.5 75.5t-27.5 106.5q0 62 25.5 109t67 78.5t95.5 47t111 15.5t111.5 -16t97.5 -47.5t69.5 -79t26.5 -109.5q0 -39 -14 -75.5t-32.5 -66t-36 -50.5
t-24.5 -29q27 -16 50 -35.5t40.5 -44.5t27 -55.5t9.5 -67.5q0 -62 -27 -110.5t-72.5 -83t-104.5 -52.5t-123 -18zM473 189q7 8 17 22t19.5 32.5t16 42t6.5 49.5q0 24 -11 42t-28 30t-39 18t-44 6t-42.5 -5t-36 -16t-25 -28t-9.5 -41q0 -29 15 -50.5t39.5 -39t56 -32.5
t65.5 -30zM406 -175q24 0 48.5 7.5t43.5 21.5t31 34t12 45q0 30 -18 52t-47.5 40.5t-66.5 35t-75 34.5q-11 -10 -24 -24.5t-24.5 -33t-19.5 -40.5t-8 -47q0 -30 12.5 -53.5t33.5 -39t47.5 -24t54.5 -8.5z" />
    <glyph glyph-name="uni2089" unicode="&#x2089;" horiz-adv-x="795" 
d="M307 -341q-45 0 -81 7t-63 16q-32 11 -57 24l56 166q20 -10 43 -17q20 -6 45 -11t51 -5q37 0 69.5 14.5t59 41t45 62.5t27.5 79h-4q-28 -20 -61.5 -31.5t-74.5 -11.5q-68 0 -123.5 23t-95 63.5t-61 95t-21.5 117.5q0 64 22 120t62.5 97.5t97.5 65.5t126 24
q72 0 136.5 -28t112.5 -81.5t76.5 -131t28.5 -177.5q0 -93 -25.5 -186t-77 -168t-130 -121.5t-183.5 -46.5zM406 134q51 0 84.5 26.5t33.5 75.5q0 29 -11.5 61.5t-32.5 59.5t-50 44.5t-63 17.5q-26 0 -46.5 -10.5t-34.5 -28.5t-22 -42.5t-8 -51.5q0 -30 9 -57.5t27.5 -48.5
t46.5 -33.5t67 -12.5z" />
    <glyph glyph-name="Euro" unicode="&#x20ac;" horiz-adv-x="1237" 
d="M84 647h115q-5 35 -5 80.5t3 87.5h-113v150h141q33 111 98.5 205.5t156 163t203 107t239.5 38.5q44 0 83.5 -4.5t69.5 -9.5q35 -6 66 -13l-62 -227q-25 6 -51 11q-23 4 -52 7.5t-61 3.5q-74 0 -137.5 -20.5t-115.5 -57.5t-91 -89t-63 -115h520l-33 -150h-524
q-5 -42 -4 -83t6 -85h492l-33 -149h-414q25 -64 65 -116.5t92.5 -90.5t115.5 -59t135 -21q38 0 73 4.5t61 9.5q31 6 58 15l45 -228q-31 -11 -69 -19q-32 -7 -76.5 -12.5t-95.5 -5.5q-132 0 -245.5 39t-203.5 109t-153.5 165.5t-94.5 209.5h-141v149z" />
    <glyph glyph-name="trademark" unicode="&#x2122;" horiz-adv-x="1974" 
d="M979 1454h180l189 -428q5 -14 9.5 -28.5t8.5 -27.5l8 -30h4q4 15 9 30q4 13 9.5 27.5t10.5 28.5l188 428h181l69 -907h-196l-33 467q-2 24 0 43q1 11 2 20h-4l-160 -364h-154l-159 364h-4q1 -9 2 -20q2 -19 0 -43l-37 -467h-195zM354 1282h-303v172h801v-172h-301v-735
h-197v735z" />
    <glyph glyph-name="minus" unicode="&#x2212;" horiz-adv-x="1268" 
d="M92 686h1082v-203h-1082v203z" />
    <glyph glyph-name="infinity" unicode="&#x221e;" horiz-adv-x="1016" 
d="M510 322q-81 0 -153 31t-125 84.5t-84 125t-31 152.5t31 152.5t84 124.5t125 83.5t153 30.5t151.5 -30.5t123.5 -83.5t83.5 -124.5t30.5 -152.5t-30.5 -152.5t-83.5 -125t-123.5 -84.5t-151.5 -31z" />
    <glyph glyph-name="approxequal" unicode="&#x2248;" horiz-adv-x="1268" 
d="M111 811q28 29 63.5 57t76.5 50t86 35.5t93 13.5t87 -10.5t72 -26.5t62 -35t58 -35t59.5 -26.5t67.5 -10.5q31 0 61.5 9.5t58.5 25t53.5 36t45.5 42.5l102 -154q-29 -28 -64.5 -56t-76.5 -50t-86.5 -35.5t-93.5 -13.5t-87 10.5t-72 26.5t-62 34.5t-58 34.5t-60 26.5
t-67 10.5q-32 0 -62 -9t-58 -24.5t-53 -35.5t-46 -42zM111 393q28 28 63.5 56t76.5 49.5t86 35t93 13.5t87 -10.5t72 -26.5t62 -35t58 -35t59.5 -26.5t67.5 -10.5q31 0 61.5 9.5t58.5 25t53.5 36t45.5 42.5l102 -154q-29 -27 -64.5 -54.5t-76.5 -49.5t-86.5 -35.5
t-93.5 -13.5t-87 10.5t-72 26.5t-62 34.5t-58 34.5t-60 26.5t-67 10.5q-32 0 -62 -9.5t-58 -25t-53 -36t-46 -41.5z" />
    <glyph glyph-name="notequal" unicode="&#x2260;" horiz-adv-x="1268" 
d="M340 274h-207v201h338l152 219h-490v201h623l155 229l125 -82l-102 -147h199v-201h-330l-152 -219h482v-201h-613l-153 -225l-127 80z" />
    <glyph glyph-name="lessequal" unicode="&#x2264;" horiz-adv-x="1268" 
d="M109 670l985 438v-227l-711 -293v-4l711 -293v-228l-985 439v168zM1094 -174v-201h-981v201h981z" />
    <glyph glyph-name="greaterequal" unicode="&#x2265;" horiz-adv-x="1268" 
d="M172 291l709 293v4l-709 293v227l985 -438v-168l-985 -439v228zM1153 -174v-201h-981v201h981z" />
    <glyph glyph-name="glyph213" horiz-adv-x="686" 
d="M463 -109q9 -26 12.5 -53.5t3.5 -52.5q0 -47 -14 -87.5t-39.5 -74.5t-60.5 -59.5t-76 -42.5l-101 86q82 71 82 162q0 29 -6 58.5t-18 63.5h217z" />
    <glyph glyph-name="glyph361" horiz-adv-x="2314" 
d="M344 301l-258 148v569l258 145v310l543 290l274 -145l271 145l542 -290v-310l254 -145v-569l-254 -148v-311l-542 -289l-271 145l-274 -145l-543 289v311zM913 -197l248 136l242 -136l487 258v285l234 131v510l-234 135v279l-487 258l-242 -131l-248 131l-487 -258v-279
l-233 -135v-510l233 -131v-285zM496 379l-203 123v461l203 118v252l440 234l225 -121l219 121l439 -234v-252l204 -118v-461l-204 -123v-248l-439 -233l-219 118l-225 -118l-440 233v248zM1090 186v392h397v172h-397v309h256q27 0 35 -12.5t8 -36.5v-60h182v176
q0 54 -22.5 79.5t-82.5 25.5h-690v-172h111v-873h203z" />
    <glyph glyph-name="zero.tnum" 
d="M599 -25q-100 0 -178 27t-136.5 76t-99 117.5t-66 152.5t-37 180.5t-11.5 200.5q0 157 26.5 293.5t88 238t162.5 160t251 58.5q149 0 249.5 -58.5t162 -160t88 -238t26.5 -293.5q0 -105 -11.5 -201t-37 -180t-66 -152.5t-99 -117.5t-136 -76t-176.5 -27zM599 211
q75 0 124 40t78.5 110t41.5 164.5t12 203.5q0 108 -12 201.5t-41.5 163t-78.5 109.5t-124 40t-124.5 -40t-79 -109.5t-41 -163t-11.5 -201.5q0 -109 11.5 -203.5t41 -164.5t79 -110t124.5 -40z" />
    <glyph glyph-name="one.tnum" 
d="M182 215h318v819v36t1 32q0 17 1 31h-4q-5 -10 -14 -23q-8 -11 -20.5 -26.5t-29.5 -32.5l-116 -111l-156 164l364 350h232v-1239h313v-215h-889v215z" />
    <glyph glyph-name="two.tnum" 
d="M95 0q-6 35 -10 66.5t-4 62.5q0 98 30 176.5t79 142.5t111.5 116t127.5 97.5t127.5 88t111.5 86.5t79 92.5t30 107.5q0 52 -17 90.5t-47 64.5t-70.5 39t-86.5 13q-32 0 -60.5 -8t-54 -20.5t-47 -29t-39.5 -33.5q-41 -40 -73 -91l-185 127q42 81 110 145q29 27 66 53.5
t83.5 47t102 33t120.5 12.5q96 0 182 -28.5t151.5 -83.5t103.5 -135t38 -183q0 -85 -29 -153.5t-76.5 -125.5t-108.5 -104.5t-124.5 -90.5t-125 -83.5t-109.5 -83.5t-78 -90t-31 -103h502v184h229v-399h-1008z" />
    <glyph glyph-name="three.tnum" 
d="M133 1454h918v-186l-342 -406q70 -11 137 -41t119.5 -80.5t85 -122.5t32.5 -165t-34.5 -179.5t-100.5 -152.5t-162.5 -106t-220.5 -40q-58 0 -109 8.5t-96 22t-82.5 31t-68.5 35.5q-72 43 -125 98l131 188q43 -41 95 -74q45 -28 105.5 -50.5t133.5 -22.5q57 0 105 17.5
t83 48t54.5 73t19.5 92.5q0 54 -21 96.5t-59 72.5t-90.5 45.5t-114.5 15.5q-25 0 -46 -2t-34 -2l-59 129l315 385q10 11 21 22t20 19q11 10 21 18v4q-14 -2 -28 -3q-12 -2 -26.5 -2.5t-27.5 -0.5h-320v-172h-229v387z" />
    <glyph glyph-name="four.tnum" 
d="M19 537l629 917h313v-872h187v-207h-187v-375h-262v375h-680v162zM294 586v-4h405v485q0 20 2 41.5t4 40.5q3 22 6 43h-6q-7 -18 -16 -36q-8 -16 -18.5 -35.5t-22.5 -39.5z" />
    <glyph glyph-name="five.tnum" 
d="M215 352q39 -40 89 -71q42 -26 101.5 -48t132.5 -22q60 0 112.5 18.5t91 52t61 79.5t22.5 102q0 55 -20 101.5t-57.5 80t-92.5 52t-125 18.5q-55 0 -98 -10.5t-74 -22.5q-36 -15 -63 -33l-148 56l68 749h790v-387h-229v172h-332l-28 -285q-2 -11 -3 -21t-3 -18
q-2 -10 -3 -18h4q20 9 46 16q23 6 55.5 11.5t75.5 5.5q117 0 211 -36t160 -98t101 -146t35 -181q0 -105 -40 -195t-111.5 -156.5t-170.5 -104.5t-218 -38q-57 0 -107 8t-93.5 21t-80 29.5t-66.5 34.5q-70 41 -120 94z" />
    <glyph glyph-name="six.tnum" 
d="M645 -25q-118 0 -220.5 46t-178.5 133.5t-119.5 213.5t-43.5 287q0 100 18.5 200.5t55.5 192t93.5 170.5t132 137t170.5 91t210 33q66 0 119.5 -10t91.5 -21q45 -14 80 -31l-76 -221q-27 12 -60 23q-28 9 -65.5 16.5t-80.5 7.5q-86 0 -153 -33.5t-115.5 -89t-79 -127
t-44.5 -147.5h4q21 23 52 41.5t68.5 32t80 21t86.5 7.5q106 0 192.5 -39t148 -105t95 -153t33.5 -184q0 -102 -36.5 -191.5t-102 -156.5t-156.5 -105.5t-200 -38.5zM358 549q0 -57 21 -117t59 -109t90.5 -80.5t114.5 -31.5q52 0 93.5 19t71 53t45 81.5t15.5 104.5
q0 54 -17 102t-52 84t-88.5 57t-127.5 21q-48 0 -89.5 -13.5t-71.5 -38t-47 -58.5t-17 -74z" />
    <glyph glyph-name="seven.tnum" 
d="M795 1161q9 20 17.5 35t15.5 25q8 11 16 20v4q-12 -2 -27 -3q-26 -3 -67 -3h-414v-172h-227v387h1018v-184l-637 -1270h-275z" />
    <glyph glyph-name="eight.tnum" 
d="M78 412q0 54 13.5 100.5t34.5 86.5t47 72t51.5 56.5t46.5 41t33 24.5q-37 26 -68 56t-53 65.5t-34.5 77.5t-12.5 91q0 74 28 145t86 127t145 90t206 34q103 0 191 -28t152 -79t100 -124t36 -163q0 -70 -21.5 -131t-49 -108.5t-54.5 -80t-39 -44.5q43 -26 79.5 -58t63 -71
t41.5 -85.5t15 -100.5q0 -83 -34.5 -160.5t-100.5 -137.5t-161.5 -96.5t-217.5 -36.5q-119 0 -215.5 35t-164.5 94.5t-105.5 139t-37.5 168.5zM396 1079q0 -53 27 -90.5t72.5 -67.5t105 -55t125.5 -53q9 12 25.5 35t32.5 54t28 69.5t12 83.5q0 47 -16 83t-45 61t-69.5 37.5
t-90.5 12.5q-52 0 -90.5 -13t-64.5 -36t-39 -54t-13 -67zM343 440q0 -53 20.5 -96.5t55.5 -74t82 -47.5t100 -17q49 0 93.5 15t78 42t53.5 65t20 83q0 52 -27.5 88.5t-76 66.5t-115.5 58t-145 63q-15 -13 -38.5 -34.5t-46 -52.5t-38.5 -70.5t-16 -88.5z" />
    <glyph glyph-name="nine.tnum" 
d="M58 987q0 102 36.5 192t102 156.5t156.5 105t200 38.5q118 0 220.5 -46.5t178.5 -134t119.5 -213.5t43.5 -286q0 -99 -18 -198.5t-55 -191t-93 -171t-131.5 -138t-171.5 -92t-213 -33.5q-66 0 -120 9.5t-92 21.5q-46 13 -81 31l76 221q28 -13 61 -24q29 -9 66.5 -16
t80.5 -7q88 0 155 33t115.5 88.5t79 127.5t44.5 150h-4q-21 -22 -52 -40.5t-68.5 -31.5t-80 -20.5t-86.5 -7.5q-106 0 -192.5 39t-148 104.5t-95 152t-33.5 181.5zM330 987q0 -54 17 -101t51.5 -82.5t86.5 -56t122 -20.5q48 0 90 13.5t74 38t50.5 59t18.5 75.5q0 60 -23 119
t-62 106t-91.5 76t-110.5 29q-51 0 -92 -20t-70 -54.5t-45 -81t-16 -100.5z" />
    <glyph glyph-name="hyphen.case" horiz-adv-x="940" 
d="M162 825h616v-227h-616v227z" />
    <glyph glyph-name="parenleft.case" horiz-adv-x="676" 
d="M373 -133q-115 187 -179.5 415t-64.5 482q0 223 63 426t181 389h219q-113 -190 -172.5 -394.5t-59.5 -422.5q0 -230 58.5 -455.5t173.5 -439.5h-219z" />
    <glyph glyph-name="parenright.case" horiz-adv-x="676" 
d="M84 -133q115 214 173 439.5t58 455.5q0 218 -59.5 422.5t-171.5 394.5h219q118 -186 181 -389t63 -426q0 -254 -64.5 -482t-179.5 -415h-219z" />
    <glyph glyph-name="bracketleft.case" horiz-adv-x="676" 
d="M186 1579h404v-188h-182v-1336h182v-188h-404v1712z" />
    <glyph glyph-name="bracketright.case" horiz-adv-x="676" 
d="M268 55v1336h-182v188h403v-1712h-403v188h182z" />
    <glyph glyph-name="braceleft.case" horiz-adv-x="729" 
d="M236 406q0 38 -7.5 67.5t-20 51.5t-28.5 37t-32 26q-39 24 -87 30v228q48 5 87 30q16 10 32 26t28.5 38.5t20 53t7.5 69.5v176q0 78 18.5 133.5t49 94t69.5 62t79 36t78.5 16.5t67.5 4q14 0 26 -0.5t20 -0.5q10 -1 18 -1v-192q-5 0 -11 1q-5 0 -11.5 0.5t-14.5 0.5
q-21 0 -49.5 -5.5t-54.5 -23.5t-44 -52.5t-18 -92.5v-224q0 -38 -7.5 -70t-19.5 -57.5t-27 -45t-31 -34.5q-38 -35 -85 -53v-4q47 -17 85 -50q16 -14 31 -33.5t27 -45t19.5 -58t7.5 -71.5v-246q0 -59 18 -93.5t44 -52.5t54.5 -23t49.5 -5h14.5t11.5 1q6 0 11 1v-192
q-8 -1 -18 -2q-8 -1 -20 -1.5t-26 -0.5q-29 0 -67.5 4t-78.5 16.5t-79 36t-69.5 62t-49 95t-18.5 134.5v199z" />
    <glyph glyph-name="braceright.case" horiz-adv-x="729" 
d="M68 55q4 -1 10 -1q5 -1 11.5 -1h14.5q21 0 49.5 5t54.5 23t44 52.5t18 93.5v246q0 39 7 71.5t19 58t27 45t31 33.5q37 33 84 50v4q-47 18 -84 53q-16 15 -31 34.5t-27 45t-19 57.5t-7 70v224q0 58 -18 92.5t-44 52.5t-54.5 23.5t-49.5 5.5q-8 0 -14.5 -0.5t-11.5 -0.5
q-6 -1 -10 -1v192q8 0 18 1q8 0 19.5 0.5t25.5 0.5q29 0 67 -4t78.5 -16.5t79.5 -36t69.5 -62t49.5 -94t19 -133.5v-176q0 -39 7.5 -69.5t19.5 -53t27.5 -38.5t32.5 -26q38 -25 87 -30v-228q-49 -6 -87 -30q-17 -11 -32.5 -26t-27.5 -37t-19.5 -51.5t-7.5 -67.5v-199
q0 -78 -19 -134.5t-49.5 -95t-69.5 -62t-79.5 -36t-78.5 -16.5t-67 -4q-14 0 -25.5 0.5t-19.5 1.5q-10 1 -18 2v192z" />
    <glyph glyph-name="at.case" horiz-adv-x="1604" 
d="M70 723q0 106 27 204t76.5 183t119 154t155 118t184.5 76t208 27q156 0 263.5 -36.5t174 -97.5t96 -142t29.5 -169v-512h147v-186h-565q-104 0 -185.5 32t-138 85t-86.5 121.5t-30 142.5q0 73 29.5 141t85.5 120t138 83t187 31h172q-1 40 -24 73t-64.5 57t-97.5 37
t-123 13q-111 0 -206.5 -46t-165.5 -122.5t-110 -177t-40 -209.5q0 -112 38.5 -212t110.5 -175t175 -118.5t231 -43.5v-203q-183 0 -332.5 58.5t-256 160t-164.5 238.5t-58 295zM803 729q0 -42 14 -78.5t40 -63.5t62.5 -43t81.5 -16h156v402h-151q-47 0 -84.5 -16t-64 -43.5
t-40.5 -64t-14 -77.5z" />
    <glyph glyph-name="guillemotleft.case" horiz-adv-x="1225" 
d="M537 700l335 422h248l-336 -422l336 -419h-248zM76 700l336 422h247l-335 -422l335 -419h-247z" />
    <glyph glyph-name="guillemotright.case" horiz-adv-x="1223" 
d="M901 700l-336 422h246l336 -422l-336 -419h-246zM440 700l-336 422h248l336 -422l-336 -419h-248z" />
    <glyph glyph-name="guilsinglleft.case" horiz-adv-x="764" 
d="M76 700l336 422h247l-335 -422l335 -419h-247z" />
    <glyph glyph-name="guilsinglright.case" horiz-adv-x="764" 
d="M440 700l-336 422h248l336 -422l-336 -419h-248z" />
    <glyph glyph-name="endash.case" horiz-adv-x="1470" 
d="M168 809h1135v-203h-1135v203z" />
    <glyph glyph-name="emdash.case" horiz-adv-x="1880" 
d="M168 809h1544v-203h-1544v203z" />
    <glyph glyph-name="periodcentered.case" horiz-adv-x="569" 
d="M158 840h254v-265h-254v265z" />
    <glyph glyph-name="questiondown.case" horiz-adv-x="909" 
d="M408 1454h251v-244h-251v244zM51 360q0 84 26.5 145.5t66 109.5t86 87t86 77.5t66 81t26.5 97.5v76h251v-94q0 -74 -25 -129.5t-62.5 -100t-81 -81t-81 -73.5t-62.5 -78t-25 -93q0 -36 15 -67.5t42 -54.5t63 -36.5t78 -13.5q44 0 83.5 13.5t69.5 30.5q35 19 66 44
l144 -180q-43 -41 -101 -73q-50 -28 -121.5 -50.5t-162.5 -22.5q-87 0 -167.5 26t-143 75.5t-99.5 121t-37 162.5z" />
    <glyph glyph-name="exclamdown.case" horiz-adv-x="637" 
d="M193 1454h251v-244h-251v244zM205 1034h227l23 -1034h-271z" />
    <glyph glyph-name="bullet.case" horiz-adv-x="868" 
d="M434 383q-71 0 -133.5 27t-109 73.5t-73 108.5t-26.5 133t26.5 133.5t73 109t109 73t133.5 26.5t133 -26.5t108.5 -73t73.5 -109t27 -133.5t-27 -133t-73.5 -108.5t-108.5 -73.5t-133 -27z" />
    <glyph glyph-name="zero.oldstyle" horiz-adv-x="1223" 
d="M106 561q0 74 13 146.5t39.5 138t67.5 121.5t97.5 97t128.5 64t160 23q132 0 227.5 -51t157 -134.5t90.5 -189.5t29 -217q0 -74 -13 -146t-39.5 -136.5t-67 -120t-96.5 -95.5t-128 -63t-160 -23q-133 0 -228.5 50.5t-157 133t-91 187.5t-29.5 215zM369 563q0 -68 13 -134
t42.5 -117.5t75.5 -83t112 -31.5q65 0 111 31.5t75 82.5t42.5 116.5t13.5 133.5t-13.5 134.5t-42.5 118.5t-75 84t-111 32q-66 0 -112 -32t-75.5 -83.5t-42.5 -117.5t-13 -134z" />
    <glyph glyph-name="one.oldstyle" horiz-adv-x="995" 
d="M117 207h305v524v43.5t1 43.5q0 23 1 46h-4q-9 -9 -21 -20q-11 -9 -25.5 -19.5t-31.5 -21.5l-158 -92l-121 178l386 237h225v-919h278v-207h-835v207z" />
    <glyph glyph-name="two.oldstyle" horiz-adv-x="1145" 
d="M127 176q70 45 141.5 93t137.5 98t124.5 100t101.5 100t68 98t25 93q0 47 -16.5 79.5t-44 53t-63 30t-73.5 9.5q-60 0 -113.5 -23t-95.5 -51q-48 -33 -90 -74l-133 162q53 57 123 103q30 19 66.5 38t80 33.5t92.5 23.5t105 9q87 0 164.5 -24.5t135.5 -71t92 -112.5
t34 -150q0 -92 -40 -173t-108 -153t-159.5 -137.5t-194.5 -126.5v-4q14 2 33 4q17 2 40.5 3t55.5 1h426v-207h-915v176z" />
    <glyph glyph-name="three.oldstyle" horiz-adv-x="1085" 
d="M176 96q37 -39 85 -69q41 -26 98 -47t126 -21q55 0 101.5 16t80.5 44.5t53 68.5t19 88q0 51 -21 90t-58.5 66t-89.5 41t-115 14q-13 0 -26.5 -0.5t-24.5 -1.5q-13 -1 -27 -2l-53 125l299 366q11 11 21.5 22.5t19.5 19.5q11 10 20 18v4q-14 -2 -28 -3q-12 -2 -26.5 -2.5
t-27.5 -0.5h-287v-162h-215v356h863v-170l-328 -389q65 -10 130.5 -37t118 -74t85 -114t32.5 -156q0 -90 -33.5 -171.5t-97.5 -143t-157 -97.5t-213 -36q-55 0 -103.5 7.5t-90 20.5t-77 29.5t-63.5 33.5q-67 40 -115 91z" />
    <glyph glyph-name="four.oldstyle" horiz-adv-x="1212" 
d="M43 221l592 905h321v-860h195v-198h-195v-306h-254v306h-659v153zM702 266v492q0 20 1.5 42.5t3.5 41.5q3 22 6 43h-6q-7 -18 -16 -36q-8 -16 -18.5 -36t-21.5 -39l-344 -508h395z" />
    <glyph glyph-name="five.oldstyle" horiz-adv-x="1077" 
d="M164 98q37 -37 84 -66q40 -25 95.5 -45t123.5 -20q51 0 100.5 15t88.5 45t63 74.5t24 103.5q0 57 -23 100.5t-61.5 72.5t-89 43.5t-104.5 14.5q-49 0 -90 -9t-72 -20q-36 -12 -65 -28l-140 51l68 696h754v-356h-222v162h-311l-22 -250q-2 -14 -3.5 -26.5t-3.5 -22.5
q-2 -11 -4 -21h4q19 8 45 14q22 5 53 10t70 5q106 0 194.5 -31.5t152.5 -88.5t99.5 -137t35.5 -177q0 -101 -39.5 -186t-109.5 -146t-165.5 -95t-206.5 -34q-109 0 -191.5 27t-139.5 60q-66 38 -113 87z" />
    <glyph glyph-name="six.oldstyle" horiz-adv-x="1202" 
d="M94 610q0 91 17.5 184t53.5 179.5t90 162t127.5 132t166 89t205.5 32.5q71 0 126.5 -9t94.5 -20q46 -13 80 -29l-78 -207q-28 11 -61 21q-29 8 -67 15t-81 7q-84 0 -150.5 -32.5t-114.5 -86t-78.5 -121.5t-43.5 -139h4q19 23 50.5 42t69.5 32t79 20t80 7q107 0 192.5 -36
t145.5 -98t92 -144.5t32 -174.5q0 -95 -33.5 -178.5t-95.5 -146.5t-150 -99.5t-196 -36.5q-114 0 -215.5 41.5t-177.5 122t-120 199t-44 272.5zM362 535q0 -62 21 -122.5t59.5 -108.5t91.5 -77.5t117 -29.5q51 0 91.5 17.5t68.5 49t42.5 75t14.5 95.5q0 51 -17 96.5
t-50.5 79.5t-83.5 54t-115 20q-50 0 -93.5 -11.5t-76 -32t-51.5 -47.5t-19 -58z" />
    <glyph glyph-name="seven.oldstyle" horiz-adv-x="1083" 
d="M717 854q20 39 34 60q8 11 15 20v4q-12 -2 -27 -3q-26 -3 -65 -3h-385v-162h-221v356h974v-174l-608 -1190h-274z" />
    <glyph glyph-name="eight.oldstyle" horiz-adv-x="1206" 
d="M90 395q0 69 27.5 126t65 101t75 75t57.5 46q-72 48 -117.5 114t-45.5 157q0 71 27.5 138t84 119t142 83.5t202.5 31.5q100 0 185 -25.5t147 -74t97.5 -118.5t35.5 -158q0 -43 -11 -84t-27.5 -77t-36.5 -67t-38 -54.5t-31.5 -38t-17.5 -17.5q42 -23 78.5 -52t62.5 -64.5
t41 -78.5t15 -94q0 -79 -34 -152.5t-99 -130.5t-159.5 -91t-215.5 -34q-116 0 -210 33t-161 90t-103 133.5t-36 163.5zM403 1010q0 -48 27 -83t71.5 -63t102 -52t119.5 -48q6 8 22 28.5t33 50.5t30 68t13 82q0 40 -15.5 72.5t-43.5 55t-68 34.5t-88 12q-50 0 -88 -12
t-63.5 -33.5t-38.5 -50t-13 -61.5zM348 416q0 -49 20.5 -89.5t55 -70t80 -45.5t96.5 -16t96 14t78.5 39.5t52.5 61.5t19 81q0 46 -30.5 80t-80 62.5t-113 53.5t-128.5 54q-15 -11 -39.5 -31t-48 -48.5t-41 -65.5t-17.5 -80z" />
    <glyph glyph-name="nine.oldstyle" horiz-adv-x="1194" 
d="M219 2q27 -12 60 -22q28 -8 65.5 -14.5t81.5 -6.5q85 0 151 32.5t114 86t78.5 121t43.5 137.5h-4q-19 -23 -50.5 -41t-69 -30.5t-79 -19.5t-80.5 -7q-107 0 -192.5 35.5t-145.5 97t-92 143.5t-32 174q0 95 34 179.5t96 147.5t149.5 99.5t195.5 36.5q115 0 216.5 -41.5
t177 -122t119.5 -199.5t44 -274q0 -91 -17.5 -183.5t-53.5 -178.5t-90 -161.5t-127 -131.5t-165.5 -88.5t-204.5 -32.5q-71 0 -126.5 8.5t-94.5 19.5q-46 12 -80 29zM592 442q50 0 93.5 11.5t76 31t51 46.5t18.5 59q0 63 -21 124t-58.5 109t-90 77.5t-116.5 29.5
q-51 0 -91.5 -17.5t-68.5 -49t-42.5 -75.5t-14.5 -96q0 -51 17 -96.5t50 -79.5t82.5 -54t114.5 -20z" />
    <glyph glyph-name="zero.oldstyle.tnum" 
d="M93 561q0 74 13 146.5t39.5 138t67.5 121.5t97.5 97t128.5 64t160 23q132 0 227.5 -51t157 -134.5t90.5 -189.5t29 -217q0 -74 -13 -146t-39.5 -136.5t-67 -120t-96.5 -95.5t-128 -63t-160 -23q-133 0 -228.5 50.5t-157 133t-91 187.5t-29.5 215zM356 563q0 -68 13 -134
t42.5 -117.5t75.5 -83t112 -31.5q65 0 111 31.5t75 82.5t42.5 116.5t13.5 133.5t-13.5 134.5t-42.5 118.5t-75 84t-111 32q-66 0 -112 -32t-75.5 -83.5t-42.5 -117.5t-13 -134z" />
    <glyph glyph-name="one.oldstyle.tnum" 
d="M217 207h305v524v43.5t1 43.5q0 23 1 46h-4q-9 -9 -21 -20q-11 -9 -25.5 -19.5t-31.5 -21.5l-158 -92l-121 178l386 237h225v-919h278v-207h-835v207z" />
    <glyph glyph-name="two.oldstyle.tnum" 
d="M152 176q70 45 141.5 93t137.5 98t124.5 100t101.5 100t68 98t25 93q0 47 -16.5 79.5t-44 53t-63 30t-73.5 9.5q-60 0 -113.5 -23t-95.5 -51q-48 -33 -90 -74l-133 162q53 57 123 103q30 19 66.5 38t80 33.5t92.5 23.5t105 9q87 0 164.5 -24.5t135.5 -71t92 -112.5
t34 -150q0 -92 -40 -173t-108 -153t-159.5 -137.5t-194.5 -126.5v-4q14 2 33 4q17 2 40.5 3t55.5 1h426v-207h-915v176z" />
    <glyph glyph-name="three.oldstyle.tnum" 
d="M230.549 97.7422q36.9053 -38.8955 84.7822 -68.8145q40.8945 -25.9307 97.749 -46.874q56.8535 -20.9434 125.677 -20.9434q54.8584 0 101.239 15.957t80.2939 44.3799q33.9131 28.4238 52.8643 68.3164t18.9512 87.7637q0 50.8633 -20.9463 89.7578
q-20.9463 38.8955 -58.3496 65.8232q-37.4043 26.9277 -89.2705 40.8896q-51.8672 13.9629 -114.705 13.9629q-12.9668 0 -26.4326 -0.499023q-13.4648 -0.499023 -24.4365 -1.49609q-12.9668 -0.99707 -26.9316 -1.99414l-52.8633 124.664l298.233 365.017
q10.9717 10.9707 21.4443 22.4404q10.4736 11.4688 19.4502 19.4473q10.9717 9.97363 19.9482 17.9521v3.98828q-13.9639 -1.99414 -27.9277 -2.99121q-11.9688 -1.99512 -26.4316 -2.49316q-14.4629 -0.499023 -27.4297 -0.499023h-286.265v-161.565h-214.448v355.045
h860.787v-169.544l-327.159 -387.955q64.833 -9.97363 130.166 -36.9014q65.332 -26.9268 117.697 -73.8008t84.7822 -113.693q32.416 -66.8203 32.416 -155.582q0 -89.7578 -33.4141 -171.039t-97.25 -142.616t-156.598 -97.2373q-92.7617 -35.9043 -212.453 -35.9043
q-54.8594 0 -103.235 7.48047q-48.376 7.47949 -89.7695 20.4453q-41.3936 12.9648 -76.8018 29.4199q-35.4092 16.4561 -63.3379 33.4102q-66.8281 39.8926 -114.705 90.7559z" />
    <glyph glyph-name="four.oldstyle.tnum" 
d="M36 221l592 905h321v-860h195v-198h-195v-306h-254v306h-659v153zM695 266v492q0 20 1.5 42.5t3.5 41.5q3 22 6 43h-6q-7 -18 -16 -36q-8 -16 -18.5 -36t-21.5 -39l-344 -508h395z" />
    <glyph glyph-name="five.oldstyle.tnum" 
d="M223 98q37 -37 84 -66q40 -25 95.5 -45t123.5 -20q51 0 100.5 15t88.5 45t63 74.5t24 103.5q0 57 -23 100.5t-61.5 72.5t-89 43.5t-104.5 14.5q-49 0 -90 -9t-72 -20q-36 -12 -65 -28l-140 51l68 696h754v-356h-222v162h-311l-22 -250q-2 -14 -3.5 -26.5t-3.5 -22.5
q-2 -11 -4 -21h4q19 8 45 14q22 5 53 10t70 5q106 0 194.5 -31.5t152.5 -88.5t99.5 -137t35.5 -177q0 -101 -39.5 -186t-109.5 -146t-165.5 -95t-206.5 -34q-109 0 -191.5 27t-139.5 60q-66 38 -113 87z" />
    <glyph glyph-name="six.oldstyle.tnum" 
d="M91 610q0 91 17.5 184t53.5 179.5t90 162t127.5 132t166 89t205.5 32.5q71 0 126.5 -9t94.5 -20q46 -13 80 -29l-78 -207q-28 11 -61 21q-29 8 -67 15t-81 7q-84 0 -150.5 -32.5t-114.5 -86t-78.5 -121.5t-43.5 -139h4q19 23 50.5 42t69.5 32t79 20t80 7q107 0 192.5 -36
t145.5 -98t92 -144.5t32 -174.5q0 -95 -33.5 -178.5t-95.5 -146.5t-150 -99.5t-196 -36.5q-114 0 -215.5 41.5t-177.5 122t-120 199t-44 272.5zM359 535q0 -62 21 -122.5t59.5 -108.5t91.5 -77.5t117 -29.5q51 0 91.5 17.5t68.5 49t42.5 75t14.5 95.5q0 51 -17 96.5
t-50.5 79.5t-83.5 54t-115 20q-50 0 -93.5 -11.5t-76 -32t-51.5 -47.5t-19 -58z" />
    <glyph glyph-name="seven.oldstyle.tnum" 
d="M772 854q20 39 34 60q8 11 15 20v4q-12 -2 -27 -3q-26 -3 -65 -3h-385v-162h-221v356h974v-174l-608 -1190h-274z" />
    <glyph glyph-name="eight.oldstyle.tnum" 
d="M87 395q0 69 27.5 126t65 101t75 75t57.5 46q-72 48 -117.5 114t-45.5 157q0 71 27.5 138t84 119t142 83.5t202.5 31.5q100 0 185 -25.5t147 -74t97.5 -118.5t35.5 -158q0 -43 -11 -84t-27.5 -77t-36.5 -67t-38 -54.5t-31.5 -38t-17.5 -17.5q42 -23 78.5 -52t62.5 -64.5
t41 -78.5t15 -94q0 -79 -34 -152.5t-99 -130.5t-159.5 -91t-215.5 -34q-116 0 -210 33t-161 90t-103 133.5t-36 163.5zM400 1010q0 -48 27 -83t71.5 -63t102 -52t119.5 -48q6 8 22 28.5t33 50.5t30 68t13 82q0 40 -15.5 72.5t-43.5 55t-68 34.5t-88 12q-50 0 -88 -12
t-63.5 -33.5t-38.5 -50t-13 -61.5zM345 416q0 -49 20.5 -89.5t55 -70t80 -45.5t96.5 -16t96 14t78.5 39.5t52.5 61.5t19 81q0 46 -30.5 80t-80 62.5t-113 53.5t-128.5 54q-15 -11 -39.5 -31t-48 -48.5t-41 -65.5t-17.5 -80z" />
    <glyph glyph-name="nine.oldstyle.tnum" 
d="M219 2q27 -12 60 -22q28 -8 65.5 -14.5t81.5 -6.5q85 0 151 32.5t114 86t78.5 121t43.5 137.5h-4q-19 -23 -50.5 -41t-69 -30.5t-79 -19.5t-80.5 -7q-107 0 -192.5 35.5t-145.5 97t-92 143.5t-32 174q0 95 34 179.5t96 147.5t149.5 99.5t195.5 36.5q115 0 216.5 -41.5
t177 -122t119.5 -199.5t44 -274q0 -91 -17.5 -183.5t-53.5 -178.5t-90 -161.5t-127 -131.5t-165.5 -88.5t-204.5 -32.5q-71 0 -126.5 8.5t-94.5 19.5q-46 12 -80 29zM592 442q50 0 93.5 11.5t76 31t51 46.5t18.5 59q0 63 -21 124t-58.5 109t-90 77.5t-116.5 29.5
q-51 0 -91.5 -17.5t-68.5 -49t-42.5 -75.5t-14.5 -96q0 -51 17 -96.5t50 -79.5t82.5 -54t114.5 -20z" />
    <glyph glyph-name="dollar.oldstyle" horiz-adv-x="1040" 
d="M176 350q44 -37 99 -65q47 -24 111 -44t140 -20q42 0 77.5 9t60.5 26t39 40t14 52q0 36 -26.5 60.5t-70 43t-99 34t-114 35t-114 46t-99 65.5t-70 94t-26.5 132q0 74 26.5 130t73 95.5t109 65t135.5 37.5v203h176v-201q80 -8 139.5 -25t99.5 -35q47 -21 79 -45l-90 -198
q-35 24 -83 42q-41 16 -100 29t-135 13q-39 0 -72 -6t-57 -19.5t-37.5 -35t-13.5 -52.5q0 -40 26.5 -67t70 -47t99 -36.5t114 -35.5t114 -44t99 -62t70 -89t26.5 -125q0 -66 -25 -124t-71 -103.5t-111 -76t-146 -42.5v-211h-176v209q-88 11 -157.5 37.5t-119.5 53.5
q-58 32 -102 69z" />
    <glyph glyph-name="cent.oldstyle" horiz-adv-x="1087" 
d="M57 612q0 92 29 175t83.5 149t132 112t175.5 64v172h182v-162q83 -8 146 -34t107 -54q51 -33 89 -71l-118 -191q-31 34 -71 61q-34 23 -82 42.5t-107 19.5q-72 0 -129.5 -22.5t-97 -61t-60.5 -89t-21 -106.5q0 -58 21 -109.5t60.5 -90.5t97 -61.5t129.5 -22.5
q59 0 107 18.5t82 41.5q40 26 71 61l118 -189q-38 -40 -89 -73q-44 -29 -107 -54.5t-146 -32.5v-161h-182v170q-98 18 -175.5 63.5t-132 111.5t-83.5 148.5t-29 175.5z" />
    <glyph glyph-name="sterling.oldstyle" horiz-adv-x="1214" 
d="M86 221h152v264h-121v172h121v144q0 90 37 165.5t101.5 130.5t152.5 86t190 31q85 0 153.5 -18t117.5 -40q57 -26 102 -58l-117 -191q-36 21 -76 38q-35 14 -80 26t-94 12t-90.5 -14.5t-71.5 -39.5t-46.5 -59t-16.5 -73v-140h413v-172h-413v-264h637v-221h-1051v221z" />
    <glyph glyph-name="yen.oldstyle" horiz-adv-x="1260" 
d="M160 743h170l-264 447h299l172 -324q17 -33 33 -68.5t28 -64.5q14 -34 27 -67h4q13 33 28 67q13 29 28 64.5t32 68.5l172 324h299l-262 -447h178v-155h-270l-76 -129v-35h346v-156h-346v-268h-262v268h-336v156h336v35l-76 129h-260v155z" />
    <glyph glyph-name="florin.oldstyle" horiz-adv-x="1200" 
d="M39 -25l52 -6q22 -2 45 -4t40 -2q28 0 63.5 6t68.5 26t57.5 57.5t29.5 99.5l37 440h-153v207h172l18 202q8 85 34.5 147t65.5 105.5t86 70t95.5 41t94.5 19.5t83 5q26 0 57.5 -3t57.5 -6q31 -4 61 -8v-221q-32 3 -62 7q-26 2 -53 4.5t-45 2.5q-29 0 -64.5 -6t-68 -25.5
t-57 -57t-29.5 -99.5l-18 -178h223v-207h-242l-39 -465q-8 -86 -34.5 -148t-65 -105t-85.5 -69.5t-95 -40.5t-94 -19t-82 -5q-26 0 -53 2t-50 5q-26 3 -51 7v221z" />
    <glyph glyph-name="Euro.oldstyle" horiz-adv-x="1171" 
d="M84 522h133q-5 28 -4.5 66t2.5 76h-131v135h158q27 85 80 160.5t131 132t182 89.5t235 33q43 0 80.5 -3.5t64.5 -8.5q32 -5 58 -12l-57 -209q-21 6 -46 10q-21 4 -48.5 7t-57.5 3q-66 0 -120.5 -15.5t-98 -42.5t-75 -64t-52.5 -80h461l-31 -135h-471q-2 -15 -3 -34
t-0.5 -38t2.5 -37t5 -33h445l-27 -135h-367q22 -42 54.5 -78t75 -61.5t96 -40t116.5 -14.5q37 0 70 4.5t57 9.5q28 6 52 14l43 -211q-30 -10 -65 -18q-30 -7 -71.5 -12t-89.5 -5q-126 0 -228 32t-180 88t-132 131t-84 161h-162v135z" />
    <glyph glyph-name="zero.numr" horiz-adv-x="823" 
d="M412 536q-95 0 -158.5 36.5t-102 100t-55 149.5t-16.5 185q0 98 16.5 183.5t55 149t102 100t158.5 36.5q94 0 158 -36.5t102 -100t54.5 -149t16.5 -183.5q0 -99 -16.5 -185t-54.5 -149.5t-102 -100t-158 -36.5zM412 714q40 0 66 22.5t41.5 62.5t21.5 93t6 115
q0 60 -6 112.5t-21.5 92t-41.5 62t-66 22.5q-39 0 -65.5 -22.5t-42 -62t-22 -92t-6.5 -112.5q0 -62 6.5 -115t22 -93t42 -62.5t65.5 -22.5z" />
    <glyph glyph-name="one.numr" horiz-adv-x="727" 
d="M80 712h207v430q0 30 3 47q1 10 3 17h-4l-8 -12q-8 -11 -25 -25l-84 -80l-115 125l254 241h170v-743h207v-156h-608v156z" />
    <glyph glyph-name="two.numr" horiz-adv-x="788" 
d="M66 646q0 63 18.5 112.5t48.5 89t69 71t79 58.5t79 51t69 48.5t48.5 52t18.5 60.5q0 24 -10 43.5t-27 34t-39.5 22t-46.5 7.5q-37 0 -66.5 -15t-51.5 -33q-26 -21 -46 -47l-129 113q32 45 77 81q38 30 96 55.5t136 25.5q66 0 121.5 -19t96 -54.5t63 -85t22.5 -109.5
q0 -56 -17.5 -99.5t-46.5 -78.5t-66 -62.5t-76.5 -52t-77.5 -46.5t-68.5 -46t-50.5 -51t-23 -60h285v98h156v-254h-633q-2 16 -4 33q-2 14 -3 29.5t-1 27.5z" />
    <glyph glyph-name="three.numr" horiz-adv-x="784" 
d="M88 1455h598v-125l-209 -241q49 -9 91 -29t73 -51t48.5 -72.5t17.5 -95.5q0 -59 -23 -114t-65.5 -97.5t-104 -68t-139.5 -25.5q-80 0 -138 21t-97 47q-46 30 -77 69l101 131q21 -27 51 -48q26 -18 63 -33t87 -15q30 0 56 9.5t46 26.5t31.5 40.5t11.5 52.5t-13.5 51
t-35.5 36.5t-50.5 22t-58.5 7.5h-65l-39 92l176 215q8 9 16.5 16.5t15.5 13.5q8 7 15 13v8q-10 -2 -21 -4q-9 -2 -20.5 -3t-23.5 -1h-160v-105h-158v256z" />
    <glyph glyph-name="four.numr" horiz-adv-x="825" 
d="M457 765h-416v125l387 565h221v-542h119v-148h-119v-209h-192v209zM457 913v266q0 16 1.5 33t3.5 31q2 17 5 32h-8q-6 -14 -12 -29q-5 -13 -12.5 -28t-16.5 -29l-195 -272v-4h234z" />
    <glyph glyph-name="five.numr" horiz-adv-x="776" 
d="M362 536q-73 0 -130 19t-97 42q-47 27 -82 62l101 133q25 -24 55 -42q26 -16 60.5 -29t76.5 -13q33 0 62.5 10t52 29t36 45.5t13.5 58.5q0 30 -12 55.5t-34 44t-53 29t-69 10.5q-30 0 -55.5 -5.5t-44.5 -12.5q-22 -8 -39 -18l-105 39l45 462h519v-256h-156v105h-205
l-8 -135q-2 -13 -3.5 -22.5t-2.5 -17.5q-2 -9 -2 -16l4 -2q12 5 28 9q14 4 31.5 7t40.5 3q72 0 130.5 -22t100 -60.5t64.5 -90t23 -110.5t-23.5 -115t-67.5 -99.5t-108 -70t-146 -26.5z" />
    <glyph glyph-name="six.numr" horiz-adv-x="795" 
d="M424 536q-72 0 -136 27.5t-112 81t-76 131.5t-28 180q0 60 11.5 122t34 120t57 108.5t80.5 88t104 59.5t128 22q44 0 80.5 -7.5t63.5 -16.5q32 -11 57 -23l-55 -166q-21 9 -44 16q-20 6 -44 11.5t-47 5.5q-40 0 -73.5 -15t-60 -41.5t-44.5 -63t-27 -79.5h4q25 20 60 31.5
t69 11.5q72 0 129 -23t96.5 -62.5t60.5 -93.5t21 -116q0 -65 -22 -121t-62 -98t-97.5 -66t-127.5 -24zM424 714q28 0 49.5 10.5t36 29t22 42.5t7.5 51q0 30 -9.5 57.5t-27.5 48.5t-45 33.5t-62 12.5q-25 0 -47.5 -7t-40 -18t-27.5 -26t-10 -31q0 -39 12 -76t33 -65t49 -45
t60 -17z" />
    <glyph glyph-name="seven.numr" horiz-adv-x="748" 
d="M473 1257q5 10 10.5 18t10.5 15l12 14v6q-9 -2 -19 -3q-17 -3 -38 -3h-230v-105h-158v256h652v-133l-400 -766h-202z" />
    <glyph glyph-name="eight.numr" horiz-adv-x="813" 
d="M410 536q-63 0 -123.5 17.5t-108.5 52.5t-77 87.5t-29 122.5q0 43 15.5 79.5t37.5 65.5t46 50t40 33q-43 32 -70.5 75.5t-27.5 106.5q0 62 25.5 109t67 78.5t95.5 47t111 15.5t111.5 -16t97.5 -47.5t69.5 -79t26.5 -109.5q0 -39 -14 -75.5t-32.5 -66t-36 -50.5t-24.5 -29
q27 -16 50 -35.5t40.5 -44.5t27 -55.5t9.5 -67.5q0 -62 -27 -110.5t-72.5 -83t-104.5 -52.5t-123 -18zM475 1066q7 8 17 22t19.5 32.5t16 42t6.5 49.5q0 24 -11 42t-28 30t-39 18t-44 6t-42.5 -5t-36 -16t-25 -28t-9.5 -41q0 -29 15 -50.5t39.5 -39t56 -32.5t65.5 -30z
M408 702q24 0 48.5 7.5t43.5 21.5t31 34t12 45q0 30 -18 52t-47.5 40.5t-66.5 35t-75 34.5q-11 -10 -24 -24.5t-24.5 -33t-19.5 -40.5t-8 -47q0 -30 12.5 -53.5t33.5 -39t47.5 -24t54.5 -8.5z" />
    <glyph glyph-name="nine.numr" horiz-adv-x="795" 
d="M307 536q-45 0 -81 7t-63 16q-32 11 -57 24l56 166q20 -10 43 -17q20 -6 45 -11t51 -5q37 0 69.5 14.5t59 41t45 62.5t27.5 79h-4q-28 -20 -61.5 -31.5t-74.5 -11.5q-68 0 -123.5 23t-95 63.5t-61 95t-21.5 117.5q0 64 22 120t62.5 97.5t97.5 65.5t126 24q72 0 136.5 -28
t112.5 -81.5t76.5 -131t28.5 -177.5q0 -93 -25.5 -186t-77 -168t-130 -121.5t-183.5 -46.5zM406 1011q51 0 84.5 26.5t33.5 75.5q0 29 -11.5 61.5t-32.5 59.5t-50 44.5t-63 17.5q-26 0 -46.5 -10.5t-34.5 -28.5t-22 -42.5t-8 -51.5q0 -30 9 -57.5t27.5 -48.5t46.5 -33.5
t67 -12.5z" />
    <glyph glyph-name="zero.dnom" horiz-adv-x="823" 
d="M412 -19q-95 0 -158.5 36.5t-102 100t-55 149.5t-16.5 185q0 98 16.5 183.5t55 149t102 100t158.5 36.5q94 0 158 -36.5t102 -100t54.5 -149t16.5 -183.5q0 -99 -16.5 -185t-54.5 -149.5t-102 -100t-158 -36.5zM412 159q40 0 66 22.5t41.5 62.5t21.5 93t6 115
q0 60 -6 112.5t-21.5 92t-41.5 62t-66 22.5q-39 0 -65.5 -22.5t-42 -62t-22 -92t-6.5 -112.5q0 -62 6.5 -115t22 -93t42 -62.5t65.5 -22.5z" />
    <glyph glyph-name="one.dnom" horiz-adv-x="725" 
d="M80 157h207v430q0 30 3 47q1 10 3 17h-4l-8 -12q-8 -11 -25 -25l-84 -80l-115 125l254 241h170v-743h207v-156h-608v156z" />
    <glyph glyph-name="two.dnom" horiz-adv-x="788" 
d="M66 91q0 63 18.5 112.5t48.5 89t69 71t79 58.5t79 51t69 48.5t48.5 52t18.5 60.5q0 24 -10 43.5t-27 34t-39.5 22t-46.5 7.5q-37 0 -66.5 -15t-51.5 -33q-26 -21 -46 -47l-129 113q32 45 77 81q38 30 96 55.5t136 25.5q66 0 121.5 -19t96 -54.5t63 -85t22.5 -109.5
q0 -56 -17.5 -99.5t-46.5 -78.5t-66 -62.5t-76.5 -52t-77.5 -46.5t-68.5 -46t-50.5 -51t-23 -60h285v98h156v-254h-633q-2 16 -4 33q-2 14 -3 29.5t-1 27.5z" />
    <glyph glyph-name="three.dnom" horiz-adv-x="782" 
d="M88 900h598v-125l-209 -241q49 -9 91 -29t73 -51t48.5 -72.5t17.5 -95.5q0 -59 -23 -114t-65.5 -97.5t-104 -68t-139.5 -25.5q-80 0 -138 21t-97 47q-46 30 -77 69l101 131q21 -27 51 -48q26 -18 63 -33t87 -15q30 0 56 9.5t46 26.5t31.5 40.5t11.5 52.5t-13.5 51
t-35.5 36.5t-50.5 22t-58.5 7.5h-65l-39 92l176 215q8 9 16.5 16.5t15.5 13.5q8 7 15 13v8q-10 -2 -21 -4q-9 -2 -20.5 -3t-23.5 -1h-160v-105h-158v256z" />
    <glyph glyph-name="four.dnom" horiz-adv-x="825" 
d="M457 210h-416v125l387 565h221v-542h119v-148h-119v-209h-192v209zM457 358v266q0 16 1.5 33t3.5 31q2 17 5 32h-8q-6 -14 -12 -29q-5 -13 -12.5 -28t-16.5 -29l-195 -272v-4h234z" />
    <glyph glyph-name="five.dnom" horiz-adv-x="776" 
d="M362 -19q-73 0 -130 19t-97 42q-47 27 -82 62l101 133q25 -24 55 -42q26 -16 60.5 -29t76.5 -13q33 0 62.5 10t52 29t36 45.5t13.5 58.5q0 30 -12 55.5t-34 44t-53 29t-69 10.5q-30 0 -55.5 -5.5t-44.5 -12.5q-22 -8 -39 -18l-105 39l45 462h519v-256h-156v105h-205
l-8 -135q-2 -13 -3.5 -22.5t-2.5 -17.5q-2 -9 -2 -16l4 -2q12 5 28 9q14 4 31.5 7t40.5 3q72 0 130.5 -22t100 -60.5t64.5 -90t23 -110.5t-23.5 -115t-67.5 -99.5t-108 -70t-146 -26.5z" />
    <glyph glyph-name="six.dnom" horiz-adv-x="795" 
d="M424 -19q-72 0 -136 27.5t-112 81t-76 131.5t-28 180q0 60 11.5 122t34 120t57 108.5t80.5 88t104 59.5t128 22q44 0 80.5 -7.5t63.5 -16.5q32 -11 57 -23l-55 -166q-21 9 -44 16q-20 6 -44 11.5t-47 5.5q-40 0 -73.5 -15t-60 -41.5t-44.5 -63t-27 -79.5h4q25 20 60 31.5
t69 11.5q72 0 129 -23t96.5 -62.5t60.5 -93.5t21 -116q0 -65 -22 -121t-62 -98t-97.5 -66t-127.5 -24zM424 159q28 0 49.5 10.5t36 29t22 42.5t7.5 51q0 30 -9.5 57.5t-27.5 48.5t-45 33.5t-62 12.5q-25 0 -47.5 -7t-40 -18t-27.5 -26t-10 -31q0 -39 12 -76t33 -65t49 -45
t60 -17z" />
    <glyph glyph-name="seven.dnom" horiz-adv-x="750" 
d="M475 702q5 10 10.5 18t10.5 15l12 14v6q-9 -2 -19 -3q-17 -3 -38 -3h-230v-105h-158v256h652v-133l-400 -766h-202z" />
    <glyph glyph-name="eight.dnom" horiz-adv-x="813" 
d="M410 -19q-63 0 -123.5 17.5t-108.5 52.5t-77 87.5t-29 122.5q0 43 15.5 79.5t37.5 65.5t46 50t40 33q-43 32 -70.5 75.5t-27.5 106.5q0 62 25.5 109t67 78.5t95.5 47t111 15.5t111.5 -16t97.5 -47.5t69.5 -79t26.5 -109.5q0 -39 -14 -75.5t-32.5 -66t-36 -50.5t-24.5 -29
q27 -16 50 -35.5t40.5 -44.5t27 -55.5t9.5 -67.5q0 -62 -27 -110.5t-72.5 -83t-104.5 -52.5t-123 -18zM475 511q7 8 17 22t19.5 32.5t16 42t6.5 49.5q0 24 -11 42t-28 30t-39 18t-44 6t-42.5 -5t-36 -16t-25 -28t-9.5 -41q0 -29 15 -50.5t39.5 -39t56 -32.5t65.5 -30z
M408 147q24 0 48.5 7.5t43.5 21.5t31 34t12 45q0 30 -18 52t-47.5 40.5t-66.5 35t-75 34.5q-11 -10 -24 -24.5t-24.5 -33t-19.5 -40.5t-8 -47q0 -30 12.5 -53.5t33.5 -39t47.5 -24t54.5 -8.5z" />
    <glyph glyph-name="nine.dnom" horiz-adv-x="797" 
d="M307 -19q-45 0 -81 7t-63 16q-32 11 -57 24l56 166q20 -10 43 -17q20 -6 45 -11t51 -5q37 0 69.5 14.5t59 41t45 62.5t27.5 79h-4q-28 -20 -61.5 -31.5t-74.5 -11.5q-68 0 -123.5 23t-95 63.5t-61 95t-21.5 117.5q0 64 22 120t62.5 97.5t97.5 65.5t126 24q72 0 136.5 -28
t112.5 -81.5t76.5 -131t28.5 -177.5q0 -93 -25.5 -186t-77 -168t-130 -121.5t-183.5 -46.5zM406 456q51 0 84.5 26.5t33.5 75.5q0 29 -11.5 61.5t-32.5 59.5t-50 44.5t-63 17.5q-26 0 -46.5 -10.5t-34.5 -28.5t-22 -42.5t-8 -51.5q0 -30 9 -57.5t27.5 -48.5t46.5 -33.5
t67 -12.5z" />
    </font>
</defs>
</svg>
